Классический форум-трекер
canvas not supported
Нас вместе: 4 233 689

Vanessa Peters - Flying On Instruments (2024) [FLAC 24/96|Lossless|WEB-DL|tracks] <Rock, Folk>


 
 
RSS
Начать новую тему   Ответить на тему    Торрент-трекер NNM-Club -> HD Audio и Многоканальная Музыка -> WEB-DL-Audio
Автор Сообщение
krochka1 ®
RG Music

Online
Стаж: 3 года 6 мес.
Сообщений: 2669
Ratio: 422.841
Поблагодарили: 105944
100%
Vanessa Peters - Flying On Instruments (2024)
Жанр: Rock, Folk
Издание: Idol Records
Источник: Qobuz
Продолжительность: 00:41:58

Кодек: FLAC 24/96
Битрейт: Lossless|WEB-DL
Тип рипа: tracks

Треклист:
01. Beauty Or Grace (5:10)
02. Halfway Through (4:40)
03. Blind Curves (5:23)
04. Better (4:46)
05. Pinball Heart (4:18)
06. Out To Sea (4:06)
07. How Long (4:43)
08. Hey Claire (4:32)
09. Wasted Days (4:20)
Общее
Полное имя : H:\Vanessa Peters - Flying On Instruments (2024)\01 - Beauty Or Grace.flac
Формат : FLAC
Формат/Информация : Free Lossless Audio Codec
Размер файла : 108 Мбайт
Продолжительность : 5 м. 10 с.
Режим общего битрейта : Переменный
Общий поток : 2 913 Кбит/сек
Альбом : Flying On Instruments
Альбом/Исполнитель : Vanessa Peters
Трек : Beauty Or Grace
Трек/Положение : 1
Исполнитель : Vanessa Peters
Композитор : Vanessa Peters
Жанр : Rock
Дата записи : 2024 / 2024-02-23
ISRC : US2H22401469
Авторское право : 2024 Idol Records 2024 Idol Records
UPC : 0098054219424
MEDIATYPE : album
ITUNESADVISORY : 1

Аудио
Формат : FLAC
Формат/Информация : Free Lossless Audio Codec
Продолжительность : 5 м. 10 с.
Вид битрейта : Переменный
Битрейт : 2 913 Кбит/сек
Каналы : 2 канала
Channel layout : L R
Частота : 96,0 КГц
Битовая глубина : 24 бит
Метод сжатия : Без потерь
Размер потока : 108 Мбайт (100%)
Библиотека кодирования : libFLAC 1.1.0 (2003-01-26)
MD5 of the unencoded content : 00000000000000000000000000000000

Общее
Полное имя : H:\Vanessa Peters - Flying On Instruments (2024)\02 - Halfway Through.flac
Формат : FLAC
Формат/Информация : Free Lossless Audio Codec
Размер файла : 102 Мбайт
Продолжительность : 4 м. 39 с.
Режим общего битрейта : Переменный
Общий поток : 3 057 Кбит/сек
Альбом : Flying On Instruments
Альбом/Исполнитель : Vanessa Peters
Трек : Halfway Through
Трек/Положение : 2
Исполнитель : Vanessa Peters
Композитор : Vanessa Peters
Жанр : Rock
Дата записи : 2024 / 2024-02-23
ISRC : US2H22401470
Авторское право : 2024 Idol Records 2024 Idol Records
UPC : 0098054219424
MEDIATYPE : album
ITUNESADVISORY : 1

Аудио
Формат : FLAC
Формат/Информация : Free Lossless Audio Codec
Продолжительность : 4 м. 39 с.
Вид битрейта : Переменный
Битрейт : 3 057 Кбит/сек
Каналы : 2 канала
Channel layout : L R
Частота : 96,0 КГц
Битовая глубина : 24 бит
Метод сжатия : Без потерь
Размер потока : 102 Мбайт (100%)
Библиотека кодирования : libFLAC 1.1.0 (2003-01-26)
MD5 of the unencoded content : 00000000000000000000000000000000

Общее
Полное имя : H:\Vanessa Peters - Flying On Instruments (2024)\03 - Blind Curves.flac
Формат : FLAC
Формат/Информация : Free Lossless Audio Codec
Размер файла : 113 Мбайт
Продолжительность : 5 м. 22 с.
Режим общего битрейта : Переменный
Общий поток : 2 937 Кбит/сек
Альбом : Flying On Instruments
Альбом/Исполнитель : Vanessa Peters
Трек : Blind Curves
Трек/Положение : 3
Исполнитель : Vanessa Peters
Композитор : Vanessa Peters
Жанр : Rock
Дата записи : 2024 / 2024-02-23
ISRC : US2H22401471
Авторское право : 2024 Idol Records 2024 Idol Records
UPC : 0098054219424
MEDIATYPE : album
ITUNESADVISORY : 1

Аудио
Формат : FLAC
Формат/Информация : Free Lossless Audio Codec
Продолжительность : 5 м. 22 с.
Вид битрейта : Переменный
Битрейт : 2 937 Кбит/сек
Каналы : 2 канала
Channel layout : L R
Частота : 96,0 КГц
Битовая глубина : 24 бит
Метод сжатия : Без потерь
Размер потока : 113 Мбайт (100%)
Библиотека кодирования : libFLAC 1.1.0 (2003-01-26)
MD5 of the unencoded content : 00000000000000000000000000000000

Общее
Полное имя : H:\Vanessa Peters - Flying On Instruments (2024)\04 - Better.flac
Формат : FLAC
Формат/Информация : Free Lossless Audio Codec
Размер файла : 104 Мбайт
Продолжительность : 4 м. 45 с.
Режим общего битрейта : Переменный
Общий поток : 3 040 Кбит/сек
Альбом : Flying On Instruments
Альбом/Исполнитель : Vanessa Peters
Трек : Better
Трек/Положение : 4
Исполнитель : Vanessa Peters
Композитор : Vanessa Peters
Жанр : Rock
Дата записи : 2024 / 2024-02-23
ISRC : US2H22401472
Авторское право : 2024 Idol Records 2024 Idol Records
UPC : 0098054219424
MEDIATYPE : album
ITUNESADVISORY : 1

Аудио
Формат : FLAC
Формат/Информация : Free Lossless Audio Codec
Продолжительность : 4 м. 45 с.
Вид битрейта : Переменный
Битрейт : 3 040 Кбит/сек
Каналы : 2 канала
Channel layout : L R
Частота : 96,0 КГц
Битовая глубина : 24 бит
Метод сжатия : Без потерь
Размер потока : 104 Мбайт (100%)
Библиотека кодирования : libFLAC 1.1.0 (2003-01-26)
MD5 of the unencoded content : 00000000000000000000000000000000

Общее
Полное имя : H:\Vanessa Peters - Flying On Instruments (2024)\05 - Pinball Heart.flac
Формат : FLAC
Формат/Информация : Free Lossless Audio Codec
Размер файла : 91,1 Мбайт
Продолжительность : 4 м. 18 с.
Режим общего битрейта : Переменный
Общий поток : 2 957 Кбит/сек
Альбом : Flying On Instruments
Альбом/Исполнитель : Vanessa Peters
Трек : Pinball Heart
Трек/Положение : 5
Исполнитель : Vanessa Peters
Композитор : Vanessa Peters
Жанр : Rock
Дата записи : 2024 / 2024-02-23
ISRC : US2H22401473
Авторское право : 2024 Idol Records 2024 Idol Records
UPC : 0098054219424
MEDIATYPE : album
ITUNESADVISORY : 1

Аудио
Формат : FLAC
Формат/Информация : Free Lossless Audio Codec
Продолжительность : 4 м. 18 с.
Вид битрейта : Переменный
Битрейт : 2 957 Кбит/сек
Каналы : 2 канала
Channel layout : L R
Частота : 96,0 КГц
Битовая глубина : 24 бит
Метод сжатия : Без потерь
Размер потока : 91,1 Мбайт (100%)
Библиотека кодирования : libFLAC 1.1.0 (2003-01-26)
MD5 of the unencoded content : 00000000000000000000000000000000

Общее
Полное имя : H:\Vanessa Peters - Flying On Instruments (2024)\06 - Out To Sea.flac
Формат : FLAC
Формат/Информация : Free Lossless Audio Codec
Размер файла : 90,8 Мбайт
Продолжительность : 4 м. 6 с.
Режим общего битрейта : Переменный
Общий поток : 3 094 Кбит/сек
Альбом : Flying On Instruments
Альбом/Исполнитель : Vanessa Peters
Трек : Out To Sea
Трек/Положение : 6
Исполнитель : Vanessa Peters
Композитор : Vanessa Peters
Жанр : Rock
Дата записи : 2024 / 2024-02-23
ISRC : US2H22401474
Авторское право : 2024 Idol Records 2024 Idol Records
UPC : 0098054219424
MEDIATYPE : album
ITUNESADVISORY : 1

Аудио
Формат : FLAC
Формат/Информация : Free Lossless Audio Codec
Продолжительность : 4 м. 6 с.
Вид битрейта : Переменный
Битрейт : 3 094 Кбит/сек
Каналы : 2 канала
Channel layout : L R
Частота : 96,0 КГц
Битовая глубина : 24 бит
Метод сжатия : Без потерь
Размер потока : 90,8 Мбайт (100%)
Библиотека кодирования : libFLAC 1.1.0 (2003-01-26)
MD5 of the unencoded content : 00000000000000000000000000000000

Общее
Полное имя : H:\Vanessa Peters - Flying On Instruments (2024)\07 - How Long.flac
Формат : FLAC
Формат/Информация : Free Lossless Audio Codec
Размер файла : 97,9 Мбайт
Продолжительность : 4 м. 42 с.
Режим общего битрейта : Переменный
Общий поток : 2 906 Кбит/сек
Альбом : Flying On Instruments
Альбом/Исполнитель : Vanessa Peters
Трек : How Long
Трек/Положение : 7
Исполнитель : Vanessa Peters
Композитор : Vanessa Peters
Жанр : Rock
Дата записи : 2024 / 2024-02-23
ISRC : US2H22401475
Авторское право : 2024 Idol Records 2024 Idol Records
UPC : 0098054219424
MEDIATYPE : album
ITUNESADVISORY : 1

Аудио
Формат : FLAC
Формат/Информация : Free Lossless Audio Codec
Продолжительность : 4 м. 42 с.
Вид битрейта : Переменный
Битрейт : 2 906 Кбит/сек
Каналы : 2 канала
Channel layout : L R
Частота : 96,0 КГц
Битовая глубина : 24 бит
Метод сжатия : Без потерь
Размер потока : 97,9 Мбайт (100%)
Библиотека кодирования : libFLAC 1.1.0 (2003-01-26)
MD5 of the unencoded content : 00000000000000000000000000000000

Общее
Полное имя : H:\Vanessa Peters - Flying On Instruments (2024)\08 - Hey Claire.flac
Формат : FLAC
Формат/Информация : Free Lossless Audio Codec
Размер файла : 88,5 Мбайт
Продолжительность : 4 м. 31 с.
Режим общего битрейта : Переменный
Общий поток : 2 729 Кбит/сек
Альбом : Flying On Instruments
Альбом/Исполнитель : Vanessa Peters
Трек : Hey Claire
Трек/Положение : 8
Исполнитель : Vanessa Peters
Композитор : Vanessa Peters
Жанр : Rock
Дата записи : 2024 / 2024-02-23
ISRC : US2H22401476
Авторское право : 2024 Idol Records 2024 Idol Records
UPC : 0098054219424
MEDIATYPE : album
ITUNESADVISORY : 1

Аудио
Формат : FLAC
Формат/Информация : Free Lossless Audio Codec
Продолжительность : 4 м. 31 с.
Вид битрейта : Переменный
Битрейт : 2 729 Кбит/сек
Каналы : 2 канала
Channel layout : L R
Частота : 96,0 КГц
Битовая глубина : 24 бит
Метод сжатия : Без потерь
Размер потока : 88,5 Мбайт (100%)
Библиотека кодирования : libFLAC 1.1.0 (2003-01-26)
MD5 of the unencoded content : 00000000000000000000000000000000

Общее
Полное имя : H:\Vanessa Peters - Flying On Instruments (2024)\09 - Wasted Days.flac
Формат : FLAC
Формат/Информация : Free Lossless Audio Codec
Размер файла : 91,7 Мбайт
Продолжительность : 4 м. 19 с.
Режим общего битрейта : Переменный
Общий поток : 2 958 Кбит/сек
Альбом : Flying On Instruments
Альбом/Исполнитель : Vanessa Peters
Трек : Wasted Days
Трек/Положение : 9
Исполнитель : Vanessa Peters
Композитор : Vanessa Peters
Жанр : Rock
Дата записи : 2024 / 2024-02-23
ISRC : US2H22401477
Авторское право : 2024 Idol Records 2024 Idol Records
UPC : 0098054219424
MEDIATYPE : album
ITUNESADVISORY : 1

Аудио
Формат : FLAC
Формат/Информация : Free Lossless Audio Codec
Продолжительность : 4 м. 19 с.
Вид битрейта : Переменный
Битрейт : 2 958 Кбит/сек
Каналы : 2 канала
Channel layout : L R
Частота : 96,0 КГц
Битовая глубина : 24 бит
Метод сжатия : Без потерь
Размер потока : 91,6 Мбайт (100%)
Библиотека кодирования : libFLAC 1.1.0 (2003-01-26)
MD5 of the unencoded content : 00000000000000000000000000000000

Общее
Полное имя : H:\Vanessa Peters - Flying On Instruments (2024)\Cover.jpg
Формат : JPEG
Размер файла : 113 Кбайт

Изображения
Формат : JPEG
Ширина : 500 пикселей
Высота : 500 пикселей
Цветовое пространство : YUV
Субдискретизация насыщенности : 4:2:0
Битовая глубина : 8 бит
Метод сжатия : С потерями
Размер потока : 113 Кбайт (100%)
ColorSpace_ICC : RGB

Общее
Полное имя : H:\Vanessa Peters - Flying On Instruments (2024)\foo_dr.txt
Размер файла : 1,25 Кбайт
Время раздачи: 24\7 на раздачи которым больше недели, не возвращаюсь (минимум до появления первых 3-5 скачавших)
[NNMClub.to]_Vanessa Peters - Flying On Instruments (2024).torrent
 Торрент:   Зарегистрирован
 
Зарегистрируйтесь и скачайте торрент!
18 KB

Примагнититься
 Зарегистрирован:   22 Апр 2024 11:22:28
 Размер:   886 MB  (
 Рейтинг:    (Голосов: 5)
 Поблагодарили:   33
 Проверка:   Оформление проверено модератором 22 Апр 2024 13:47:36
Как cкачать  ·  Как раздать  ·  Правильно оформить  ·  Поднять ратио!  
Показать сообщения:   
Начать новую тему   Ответить на тему    Торрент-трекер NNM-Club -> HD Audio и Многоканальная Музыка -> WEB-DL-Audio Часовой пояс: GMT + 3
Страница 1 из 1