Классический форум-трекер
canvas not supported
Нас вместе: 4 234 989

Hoot & Annie - Inspector Penny (2024) [FLAC 24/48|Lossless|WEB-DL|tracks] <Jazz Vocal>


 
 
RSS
Начать новую тему   Ответить на тему    Торрент-трекер NNM-Club -> HD Audio и Многоканальная Музыка -> WEB-DL-Audio
Автор Сообщение
krochka1 ®
RG Music
Стаж: 3 года 7 мес.
Сообщений: 2964
Ratio: 428.733
Поблагодарили: 117328
100%
Hoot & Annie - Inspector Penny (2024)
Жанр: Jazz Vocal
Издание: Diabetic Eyesight
Источник: Qobuz
Продолжительность: 00:37:14

Кодек: FLAC 24/48
Битрейт: Lossless|WEB-DL
Тип рипа: tracks

Треклист:
01. Undead Love (2:43)
02. It's You (2:56)
03. He's My Baby (4:52)
04. Bossa Penny (3:11)
05. Kansas City (3:22)
06. Too Stoned to Care (2:31)
07. Inspector Penny (3:46)
08. Whiskey Bottles (5:40)
09. Hoot & Annie Dance #5 (3:59)
10. I Ain't No Good (4:12)
Общее
Полное имя : F:\Hoot & Annie - Inspector Penny (2024)\01 - Undead Love.flac
Формат : FLAC
Формат/Информация : Free Lossless Audio Codec
Размер файла : 31,4 Мбайт
Продолжительность : 2 м. 43 с.
Режим общего битрейта : Переменный
Общий поток : 1 612 Кбит/сек
Альбом : Inspector Penny
Альбом/Исполнитель : Hoot & Annie
Трек : Undead Love
Трек/Положение : 01
Исполнитель : Hoot & Annie
Композитор : Paul Aaron Todd
Жанр : Jazz
Дата записи : 2024 / 2024-06-19
ISRC : QZNWS2473148
Авторское право : 2024 Diabetic Eyesight
UPC : 0198676077393
MEDIATYPE : album
ITUNESADVISORY : 1

Аудио
Формат : FLAC
Формат/Информация : Free Lossless Audio Codec
Продолжительность : 2 м. 43 с.
Вид битрейта : Переменный
Битрейт : 1 611 Кбит/сек
Каналы : 2 канала
Channel layout : L R
Частота : 48,0 КГц
Битовая глубина : 24 бит
Метод сжатия : Без потерь
Размер потока : 31,4 Мбайт (100%)
Библиотека кодирования : libFLAC 1.1.0 (2003-01-26)
MD5 of the unencoded content : 00000000000000000000000000000000

Общее
Полное имя : F:\Hoot & Annie - Inspector Penny (2024)\02 - It's You.flac
Формат : FLAC
Формат/Информация : Free Lossless Audio Codec
Размер файла : 36,1 Мбайт
Продолжительность : 2 м. 56 с.
Режим общего битрейта : Переменный
Общий поток : 1 716 Кбит/сек
Альбом : Inspector Penny
Альбом/Исполнитель : Hoot & Annie
Трек : It's You
Трек/Положение : 02
Исполнитель : Hoot & Annie
Композитор : Paul Aaron Todd
Жанр : Jazz
Дата записи : 2024 / 2024-06-19
ISRC : QZNWS2473149
Авторское право : 2024 Diabetic Eyesight
UPC : 0198676077393
MEDIATYPE : album
ITUNESADVISORY : 1

Аудио
Формат : FLAC
Формат/Информация : Free Lossless Audio Codec
Продолжительность : 2 м. 56 с.
Вид битрейта : Переменный
Битрейт : 1 716 Кбит/сек
Каналы : 2 канала
Channel layout : L R
Частота : 48,0 КГц
Битовая глубина : 24 бит
Метод сжатия : Без потерь
Размер потока : 36,1 Мбайт (100%)
Библиотека кодирования : libFLAC 1.1.0 (2003-01-26)
MD5 of the unencoded content : 00000000000000000000000000000000

Общее
Полное имя : F:\Hoot & Annie - Inspector Penny (2024)\03 - He's My Baby.flac
Формат : FLAC
Формат/Информация : Free Lossless Audio Codec
Размер файла : 54,3 Мбайт
Продолжительность : 4 м. 52 с.
Режим общего битрейта : Переменный
Общий поток : 1 560 Кбит/сек
Альбом : Inspector Penny
Альбом/Исполнитель : Hoot & Annie
Трек : He's My Baby
Трек/Положение : 03
Исполнитель : Hoot & Annie
Композитор : Paul Aaron Todd
Жанр : Jazz
Дата записи : 2024 / 2024-06-19
ISRC : QZNWS2473150
Авторское право : 2024 Diabetic Eyesight
UPC : 0198676077393
MEDIATYPE : album
ITUNESADVISORY : 1

Аудио
Формат : FLAC
Формат/Информация : Free Lossless Audio Codec
Продолжительность : 4 м. 52 с.
Вид битрейта : Переменный
Битрейт : 1 560 Кбит/сек
Каналы : 2 канала
Channel layout : L R
Частота : 48,0 КГц
Битовая глубина : 24 бит
Метод сжатия : Без потерь
Размер потока : 54,3 Мбайт (100%)
Библиотека кодирования : libFLAC 1.1.0 (2003-01-26)
MD5 of the unencoded content : 00000000000000000000000000000000

Общее
Полное имя : F:\Hoot & Annie - Inspector Penny (2024)\04 - Bossa Penny.flac
Формат : FLAC
Формат/Информация : Free Lossless Audio Codec
Размер файла : 39,0 Мбайт
Продолжительность : 3 м. 11 с.
Режим общего битрейта : Переменный
Общий поток : 1 711 Кбит/сек
Альбом : Inspector Penny
Альбом/Исполнитель : Hoot & Annie
Трек : Bossa Penny
Трек/Положение : 04
Исполнитель : Hoot & Annie
Композитор : Paul Aaron Todd
Жанр : Jazz
Дата записи : 2024 / 2024-06-19
ISRC : QZNWS2473151
Авторское право : 2024 Diabetic Eyesight
UPC : 0198676077393
MEDIATYPE : album
ITUNESADVISORY : 1

Аудио
Формат : FLAC
Формат/Информация : Free Lossless Audio Codec
Продолжительность : 3 м. 11 с.
Вид битрейта : Переменный
Битрейт : 1 711 Кбит/сек
Каналы : 2 канала
Channel layout : L R
Частота : 48,0 КГц
Битовая глубина : 24 бит
Метод сжатия : Без потерь
Размер потока : 39,0 Мбайт (100%)
Библиотека кодирования : libFLAC 1.1.0 (2003-01-26)
MD5 of the unencoded content : 00000000000000000000000000000000

Общее
Полное имя : F:\Hoot & Annie - Inspector Penny (2024)\05 - Kansas City.flac
Формат : FLAC
Формат/Информация : Free Lossless Audio Codec
Размер файла : 40,0 Мбайт
Продолжительность : 3 м. 22 с.
Режим общего битрейта : Переменный
Общий поток : 1 659 Кбит/сек
Альбом : Inspector Penny
Альбом/Исполнитель : Hoot & Annie
Трек : Kansas City
Трек/Положение : 05
Исполнитель : Hoot & Annie
Композитор : Paul Aaron Todd
Жанр : Jazz
Дата записи : 2024 / 2024-06-19
ISRC : QZNWS2473152
Авторское право : 2024 Diabetic Eyesight
UPC : 0198676077393
MEDIATYPE : album
ITUNESADVISORY : 1

Аудио
Формат : FLAC
Формат/Информация : Free Lossless Audio Codec
Продолжительность : 3 м. 22 с.
Вид битрейта : Переменный
Битрейт : 1 659 Кбит/сек
Каналы : 2 канала
Channel layout : L R
Частота : 48,0 КГц
Битовая глубина : 24 бит
Метод сжатия : Без потерь
Размер потока : 40,0 Мбайт (100%)
Библиотека кодирования : libFLAC 1.1.0 (2003-01-26)
MD5 of the unencoded content : 00000000000000000000000000000000

Общее
Полное имя : F:\Hoot & Annie - Inspector Penny (2024)\06 - Too Stoned to Care.flac
Формат : FLAC
Формат/Информация : Free Lossless Audio Codec
Размер файла : 30,7 Мбайт
Продолжительность : 2 м. 30 с.
Режим общего битрейта : Переменный
Общий поток : 1 704 Кбит/сек
Альбом : Inspector Penny
Альбом/Исполнитель : Hoot & Annie
Трек : Too Stoned to Care
Трек/Положение : 06
Исполнитель : Hoot & Annie
Композитор : Paul Aaron Todd
Жанр : Jazz
Дата записи : 2024 / 2024-06-19
ISRC : QZNWS2473153
Авторское право : 2024 Diabetic Eyesight
UPC : 0198676077393
MEDIATYPE : album
ITUNESADVISORY : 1

Аудио
Формат : FLAC
Формат/Информация : Free Lossless Audio Codec
Продолжительность : 2 м. 30 с.
Вид битрейта : Переменный
Битрейт : 1 703 Кбит/сек
Каналы : 2 канала
Channel layout : L R
Частота : 48,0 КГц
Битовая глубина : 24 бит
Метод сжатия : Без потерь
Размер потока : 30,7 Мбайт (100%)
Библиотека кодирования : libFLAC 1.1.0 (2003-01-26)
MD5 of the unencoded content : 00000000000000000000000000000000

Общее
Полное имя : F:\Hoot & Annie - Inspector Penny (2024)\07 - Inspector Penny.flac
Формат : FLAC
Формат/Информация : Free Lossless Audio Codec
Размер файла : 43,4 Мбайт
Продолжительность : 3 м. 46 с.
Режим общего битрейта : Переменный
Общий поток : 1 607 Кбит/сек
Альбом : Inspector Penny
Альбом/Исполнитель : Hoot & Annie
Трек : Inspector Penny
Трек/Положение : 07
Исполнитель : Hoot & Annie
Композитор : Paul Aaron Todd
Жанр : Jazz
Дата записи : 2024 / 2024-06-19
ISRC : QZNWS2473154
Авторское право : 2024 Diabetic Eyesight
UPC : 0198676077393
MEDIATYPE : album
ITUNESADVISORY : 1

Аудио
Формат : FLAC
Формат/Информация : Free Lossless Audio Codec
Продолжительность : 3 м. 46 с.
Вид битрейта : Переменный
Битрейт : 1 607 Кбит/сек
Каналы : 2 канала
Channel layout : L R
Частота : 48,0 КГц
Битовая глубина : 24 бит
Метод сжатия : Без потерь
Размер потока : 43,4 Мбайт (100%)
Библиотека кодирования : libFLAC 1.1.0 (2003-01-26)
MD5 of the unencoded content : 00000000000000000000000000000000

Общее
Полное имя : F:\Hoot & Annie - Inspector Penny (2024)\08 - Whiskey Bottles.flac
Формат : FLAC
Формат/Информация : Free Lossless Audio Codec
Размер файла : 65,8 Мбайт
Продолжительность : 5 м. 39 с.
Режим общего битрейта : Переменный
Общий поток : 1 625 Кбит/сек
Альбом : Inspector Penny
Альбом/Исполнитель : Hoot & Annie
Трек : Whiskey Bottles
Трек/Положение : 08
Исполнитель : Hoot & Annie
Композитор : Paul Aaron Todd
Жанр : Jazz
Дата записи : 2024 / 2024-06-19
ISRC : QZNWS2473155
Авторское право : 2024 Diabetic Eyesight
UPC : 0198676077393
MEDIATYPE : album
ITUNESADVISORY : 1

Аудио
Формат : FLAC
Формат/Информация : Free Lossless Audio Codec
Продолжительность : 5 м. 39 с.
Вид битрейта : Переменный
Битрейт : 1 625 Кбит/сек
Каналы : 2 канала
Channel layout : L R
Частота : 48,0 КГц
Битовая глубина : 24 бит
Метод сжатия : Без потерь
Размер потока : 65,8 Мбайт (100%)
Библиотека кодирования : libFLAC 1.1.0 (2003-01-26)
MD5 of the unencoded content : 00000000000000000000000000000000

Общее
Полное имя : F:\Hoot & Annie - Inspector Penny (2024)\09 - Hoot & Annie Dance #5.flac
Формат : FLAC
Формат/Информация : Free Lossless Audio Codec
Размер файла : 44,8 Мбайт
Продолжительность : 3 м. 59 с.
Режим общего битрейта : Переменный
Общий поток : 1 573 Кбит/сек
Альбом : Inspector Penny
Альбом/Исполнитель : Hoot & Annie
Трек : Hoot & Annie Dance #5
Трек/Положение : 09
Исполнитель : Hoot & Annie
Композитор : Paul Aaron Todd
Жанр : Jazz
Дата записи : 2024 / 2024-06-19
ISRC : QZNWS2473156
Авторское право : 2024 Diabetic Eyesight
UPC : 0198676077393
MEDIATYPE : album
ITUNESADVISORY : 1

Аудио
Формат : FLAC
Формат/Информация : Free Lossless Audio Codec
Продолжительность : 3 м. 59 с.
Вид битрейта : Переменный
Битрейт : 1 573 Кбит/сек
Каналы : 2 канала
Channel layout : L R
Частота : 48,0 КГц
Битовая глубина : 24 бит
Метод сжатия : Без потерь
Размер потока : 44,8 Мбайт (100%)
Библиотека кодирования : libFLAC 1.1.0 (2003-01-26)
MD5 of the unencoded content : 00000000000000000000000000000000

Общее
Полное имя : F:\Hoot & Annie - Inspector Penny (2024)\10 - I Ain't No Good.flac
Формат : FLAC
Формат/Информация : Free Lossless Audio Codec
Размер файла : 51,3 Мбайт
Продолжительность : 4 м. 11 с.
Режим общего битрейта : Переменный
Общий поток : 1 711 Кбит/сек
Альбом : Inspector Penny
Альбом/Исполнитель : Hoot & Annie
Трек : I Ain't No Good
Трек/Положение : 10
Исполнитель : Hoot & Annie
Композитор : Paul Aaron Todd
Жанр : Jazz
Дата записи : 2024 / 2024-06-19
ISRC : QZNWS2473157
Авторское право : 2024 Diabetic Eyesight
UPC : 0198676077393
MEDIATYPE : album
ITUNESADVISORY : 1

Аудио
Формат : FLAC
Формат/Информация : Free Lossless Audio Codec
Продолжительность : 4 м. 11 с.
Вид битрейта : Переменный
Битрейт : 1 711 Кбит/сек
Каналы : 2 канала
Channel layout : L R
Частота : 48,0 КГц
Битовая глубина : 24 бит
Метод сжатия : Без потерь
Размер потока : 51,3 Мбайт (100%)
Библиотека кодирования : libFLAC 1.1.0 (2003-01-26)
MD5 of the unencoded content : 00000000000000000000000000000000

Общее
Полное имя : F:\Hoot & Annie - Inspector Penny (2024)\Cover.jpg
Формат : JPEG
Размер файла : 40,9 Кбайт

Изображения
Формат : JPEG
Ширина : 500 пикселей
Высота : 500 пикселей
Цветовое пространство : YUV
Субдискретизация насыщенности : 4:2:0
Битовая глубина : 8 бит
Метод сжатия : С потерями
Размер потока : 40,9 Кбайт (100%)

Общее
Полное имя : F:\Hoot & Annie - Inspector Penny (2024)\foo_dr.txt
Размер файла : 1,33 Кбайт
Время раздачи: 24\7 на раздачи которым больше недели, не возвращаюсь (минимум до появления первых 3-5 скачавших)
[NNMClub.to]_Hoot & Annie - Inspector Penny (2024).torrent
 Торрент:   Зарегистрирован
 
Зарегистрируйтесь и скачайте торрент!
17.8 KB

Примагнититься
 Зарегистрирован:   22 Июн 2024 15:29:22
 Размер:   437 MB  (
 Рейтинг:    (Голосов: 4)
 Поблагодарили:   37
 Проверка:   Оформление проверено модератором 22 Июн 2024 23:40:28
Как cкачать  ·  Как раздать  ·  Правильно оформить  ·  Поднять ратио!  
Показать сообщения:   
Начать новую тему   Ответить на тему    Торрент-трекер NNM-Club -> HD Audio и Многоканальная Музыка -> WEB-DL-Audio Часовой пояс: GMT + 3
Страница 1 из 1