Классический форум-трекер
canvas not supported
Нас вместе: 4 235 277

Seasick Steve - A Trip A Stumble A Fall Down On Your Knees (2024) [FLAC 24/96|Lossless|WEB-DL|tracks] <Blues>


 
 
RSS
Начать новую тему   Ответить на тему    Торрент-трекер NNM-Club -> HD Audio и Многоканальная Музыка -> WEB-DL-Audio
Автор Сообщение
krochka1 ®
RG Music
Стаж: 3 года 8 мес.
Сообщений: 3025
Ratio: 438.908
Поблагодарили: 119282
100%
Seasick Steve - A Trip A Stumble A Fall Down On Your Knees (2024)
Жанр: Blues
Издание: So Recordings
Источник: Qobuz
Продолжительность: 00:53:10

Кодек: FLAC 24/96
Битрейт: Lossless|WEB-DL
Тип рипа: tracks

Треклист:
01. Move to the Country (4:53)
02. Internet Cowboys (4:05)
03. San Francisco Sound '67 (5:14)
04. A Trip and a Stumble (For Leya) (4:40)
05. This Way (4:22)
06. Backbone Slip (4:19)
07. Let The Music Talk (4:07)
08. You Don't Know (4:30)
09. Funky Music (4:11)
10. Cryin' Out Loud (4:15)
11. Soul Food (4:22)
12. Elisabeth (4:11)
Общее
Полное имя : F:\Seasick Steve - A Trip A Stumble A Fall Down On Your Knees (2024)\01 - Move to the Country.flac
Формат : FLAC
Формат/Информация : Free Lossless Audio Codec
Размер файла : 97,4 Мбайт
Продолжительность : 4 м. 52 с.
Режим общего битрейта : Переменный
Общий поток : 2 789 Кбит/сек
Альбом : A Trip A Stumble A Fall Down On Your Knees
Альбом/Исполнитель : Seasick Steve
Трек : Move to the Country
Трек/Положение : 01
Исполнитель : Seasick Steve
Продюсер : So Recordings
Метка : So Recordings
Жанр : Blues Rock
Дата записи : 2024-06-07
ISRC : GBAJC2400001
Авторское право : 2024 SO Recordings / Silva Screen Records Limited 2024 SO Recordings / Silva Screen Records Limited
Примечание : Telegram @Music Blocks
UPC : 0822166000010
MEDIATYPE : album
ITUNESADVISORY : 0

Аудио
Формат : FLAC
Формат/Информация : Free Lossless Audio Codec
Продолжительность : 4 м. 52 с.
Вид битрейта : Переменный
Битрейт : 2 789 Кбит/сек
Каналы : 2 канала
Channel layout : L R
Частота : 96,0 КГц
Битовая глубина : 24 бит
Метод сжатия : Без потерь
Размер потока : 97,3 Мбайт (100%)
Библиотека кодирования : libFLAC 1.1.0 (2003-01-26)
MD5 of the unencoded content : 00000000000000000000000000000000

Общее
Полное имя : F:\Seasick Steve - A Trip A Stumble A Fall Down On Your Knees (2024)\02 - Internet Cowboys.flac
Формат : FLAC
Формат/Информация : Free Lossless Audio Codec
Размер файла : 81,8 Мбайт
Продолжительность : 4 м. 4 с.
Режим общего битрейта : Переменный
Общий поток : 2 799 Кбит/сек
Альбом : A Trip A Stumble A Fall Down On Your Knees
Альбом/Исполнитель : Seasick Steve
Трек : Internet Cowboys
Трек/Положение : 02
Исполнитель : Seasick Steve
Продюсер : So Recordings
Метка : So Recordings
Жанр : Blues Rock
Дата записи : 2024-06-07
ISRC : GBAJC2400002
Авторское право : 2024 SO Recordings / Silva Screen Records Limited 2024 SO Recordings / Silva Screen Records Limited
Примечание : Telegram @Music Blocks
UPC : 0822166000010
MEDIATYPE : album
ITUNESADVISORY : 0

Аудио
Формат : FLAC
Формат/Информация : Free Lossless Audio Codec
Продолжительность : 4 м. 4 с.
Вид битрейта : Переменный
Битрейт : 2 799 Кбит/сек
Каналы : 2 канала
Channel layout : L R
Частота : 96,0 КГц
Битовая глубина : 24 бит
Метод сжатия : Без потерь
Размер потока : 81,8 Мбайт (100%)
Библиотека кодирования : libFLAC 1.1.0 (2003-01-26)
MD5 of the unencoded content : 00000000000000000000000000000000

Общее
Полное имя : F:\Seasick Steve - A Trip A Stumble A Fall Down On Your Knees (2024)\03 - San Francisco Sound '67.flac
Формат : FLAC
Формат/Информация : Free Lossless Audio Codec
Размер файла : 106 Мбайт
Продолжительность : 5 м. 14 с.
Режим общего битрейта : Переменный
Общий поток : 2 832 Кбит/сек
Альбом : A Trip A Stumble A Fall Down On Your Knees
Альбом/Исполнитель : Seasick Steve
Трек : San Francisco Sound '67
Трек/Положение : 03
Исполнитель : Seasick Steve
Продюсер : So Recordings
Метка : So Recordings
Жанр : Blues Rock
Дата записи : 2024-06-07
ISRC : GBAJC2400003
Авторское право : 2024 SO Recordings / Silva Screen Records Limited 2024 SO Recordings / Silva Screen Records Limited
Примечание : Telegram @Music Blocks
UPC : 0822166000010
MEDIATYPE : album
ITUNESADVISORY : 0

Аудио
Формат : FLAC
Формат/Информация : Free Lossless Audio Codec
Продолжительность : 5 м. 14 с.
Вид битрейта : Переменный
Битрейт : 2 832 Кбит/сек
Каналы : 2 канала
Channel layout : L R
Частота : 96,0 КГц
Битовая глубина : 24 бит
Метод сжатия : Без потерь
Размер потока : 106 Мбайт (100%)
Библиотека кодирования : libFLAC 1.1.0 (2003-01-26)
MD5 of the unencoded content : 00000000000000000000000000000000

Общее
Полное имя : F:\Seasick Steve - A Trip A Stumble A Fall Down On Your Knees (2024)\04 - A Trip and a Stumble (For Leya).flac
Формат : FLAC
Формат/Информация : Free Lossless Audio Codec
Размер файла : 92,5 Мбайт
Продолжительность : 4 м. 40 с.
Режим общего битрейта : Переменный
Общий поток : 2 770 Кбит/сек
Альбом : A Trip A Stumble A Fall Down On Your Knees
Альбом/Исполнитель : Seasick Steve
Трек : A Trip and a Stumble (For Leya)
Трек/Положение : 04
Исполнитель : Seasick Steve
Продюсер : So Recordings
Метка : So Recordings
Жанр : Blues Rock
Дата записи : 2024-06-07
ISRC : GBAJC2400004
Авторское право : 2024 SO Recordings / Silva Screen Records Limited 2024 SO Recordings / Silva Screen Records Limited
Примечание : Telegram @Music Blocks
UPC : 0822166000010
MEDIATYPE : album
ITUNESADVISORY : 0

Аудио
Формат : FLAC
Формат/Информация : Free Lossless Audio Codec
Продолжительность : 4 м. 40 с.
Вид битрейта : Переменный
Битрейт : 2 770 Кбит/сек
Каналы : 2 канала
Channel layout : L R
Частота : 96,0 КГц
Битовая глубина : 24 бит
Метод сжатия : Без потерь
Размер потока : 92,5 Мбайт (100%)
Библиотека кодирования : libFLAC 1.1.0 (2003-01-26)
MD5 of the unencoded content : 00000000000000000000000000000000

Общее
Полное имя : F:\Seasick Steve - A Trip A Stumble A Fall Down On Your Knees (2024)\05 - This Way.flac
Формат : FLAC
Формат/Информация : Free Lossless Audio Codec
Размер файла : 87,6 Мбайт
Продолжительность : 4 м. 21 с.
Режим общего битрейта : Переменный
Общий поток : 2 806 Кбит/сек
Альбом : A Trip A Stumble A Fall Down On Your Knees
Альбом/Исполнитель : Seasick Steve
Трек : This Way
Трек/Положение : 05
Исполнитель : Seasick Steve
Продюсер : So Recordings
Метка : So Recordings
Жанр : Blues Rock
Дата записи : 2024-06-07
ISRC : GBAJC2400005
Авторское право : 2024 SO Recordings / Silva Screen Records Limited 2024 SO Recordings / Silva Screen Records Limited
Примечание : Telegram @Music Blocks
UPC : 0822166000010
MEDIATYPE : album
ITUNESADVISORY : 0

Аудио
Формат : FLAC
Формат/Информация : Free Lossless Audio Codec
Продолжительность : 4 м. 21 с.
Вид битрейта : Переменный
Битрейт : 2 806 Кбит/сек
Каналы : 2 канала
Channel layout : L R
Частота : 96,0 КГц
Битовая глубина : 24 бит
Метод сжатия : Без потерь
Размер потока : 87,6 Мбайт (100%)
Библиотека кодирования : libFLAC 1.1.0 (2003-01-26)
MD5 of the unencoded content : 00000000000000000000000000000000

Общее
Полное имя : F:\Seasick Steve - A Trip A Stumble A Fall Down On Your Knees (2024)\06 - Backbone Slip.flac
Формат : FLAC
Формат/Информация : Free Lossless Audio Codec
Размер файла : 85,5 Мбайт
Продолжительность : 4 м. 19 с.
Режим общего битрейта : Переменный
Общий поток : 2 770 Кбит/сек
Альбом : A Trip A Stumble A Fall Down On Your Knees
Альбом/Исполнитель : Seasick Steve
Трек : Backbone Slip
Трек/Положение : 06
Исполнитель : Seasick Steve
Продюсер : So Recordings
Метка : So Recordings
Жанр : Blues Rock
Дата записи : 2024-06-07
ISRC : GBAJC2400006
Авторское право : 2024 SO Recordings / Silva Screen Records Limited 2024 SO Recordings / Silva Screen Records Limited
Примечание : Telegram @Music Blocks
UPC : 0822166000010
MEDIATYPE : album
ITUNESADVISORY : 0

Аудио
Формат : FLAC
Формат/Информация : Free Lossless Audio Codec
Продолжительность : 4 м. 19 с.
Вид битрейта : Переменный
Битрейт : 2 769 Кбит/сек
Каналы : 2 канала
Channel layout : L R
Частота : 96,0 КГц
Битовая глубина : 24 бит
Метод сжатия : Без потерь
Размер потока : 85,5 Мбайт (100%)
Библиотека кодирования : libFLAC 1.1.0 (2003-01-26)
MD5 of the unencoded content : 00000000000000000000000000000000

Общее
Полное имя : F:\Seasick Steve - A Trip A Stumble A Fall Down On Your Knees (2024)\07 - Let The Music Talk.flac
Формат : FLAC
Формат/Информация : Free Lossless Audio Codec
Размер файла : 83,4 Мбайт
Продолжительность : 4 м. 7 с.
Режим общего битрейта : Переменный
Общий поток : 2 828 Кбит/сек
Альбом : A Trip A Stumble A Fall Down On Your Knees
Альбом/Исполнитель : Seasick Steve
Трек : Let The Music Talk
Трек/Положение : 07
Исполнитель : Seasick Steve
Продюсер : So Recordings
Метка : So Recordings
Жанр : Blues Rock
Дата записи : 2024-06-07
ISRC : GBAJC2400007
Авторское право : 2024 SO Recordings / Silva Screen Records Limited 2024 SO Recordings / Silva Screen Records Limited
Примечание : Telegram @Music Blocks
UPC : 0822166000010
MEDIATYPE : album
ITUNESADVISORY : 0

Аудио
Формат : FLAC
Формат/Информация : Free Lossless Audio Codec
Продолжительность : 4 м. 7 с.
Вид битрейта : Переменный
Битрейт : 2 828 Кбит/сек
Каналы : 2 канала
Channel layout : L R
Частота : 96,0 КГц
Битовая глубина : 24 бит
Метод сжатия : Без потерь
Размер потока : 83,4 Мбайт (100%)
Библиотека кодирования : libFLAC 1.1.0 (2003-01-26)
MD5 of the unencoded content : 00000000000000000000000000000000

Общее
Полное имя : F:\Seasick Steve - A Trip A Stumble A Fall Down On Your Knees (2024)\08 - You Don't Know.flac
Формат : FLAC
Формат/Информация : Free Lossless Audio Codec
Размер файла : 91,5 Мбайт
Продолжительность : 4 м. 29 с.
Режим общего битрейта : Переменный
Общий поток : 2 845 Кбит/сек
Альбом : A Trip A Stumble A Fall Down On Your Knees
Альбом/Исполнитель : Seasick Steve
Трек : You Don't Know
Трек/Положение : 08
Исполнитель : Seasick Steve
Продюсер : So Recordings
Метка : So Recordings
Жанр : Blues Rock
Дата записи : 2024-06-07
ISRC : GBAJC2400008
Авторское право : 2024 SO Recordings / Silva Screen Records Limited 2024 SO Recordings / Silva Screen Records Limited
Примечание : Telegram @Music Blocks
UPC : 0822166000010
MEDIATYPE : album
ITUNESADVISORY : 1

Аудио
Формат : FLAC
Формат/Информация : Free Lossless Audio Codec
Продолжительность : 4 м. 29 с.
Вид битрейта : Переменный
Битрейт : 2 845 Кбит/сек
Каналы : 2 канала
Channel layout : L R
Частота : 96,0 КГц
Битовая глубина : 24 бит
Метод сжатия : Без потерь
Размер потока : 91,5 Мбайт (100%)
Библиотека кодирования : libFLAC 1.1.0 (2003-01-26)
MD5 of the unencoded content : 00000000000000000000000000000000

Общее
Полное имя : F:\Seasick Steve - A Trip A Stumble A Fall Down On Your Knees (2024)\09 - Funky Music.flac
Формат : FLAC
Формат/Информация : Free Lossless Audio Codec
Размер файла : 85,9 Мбайт
Продолжительность : 4 м. 10 с.
Режим общего битрейта : Переменный
Общий поток : 2 875 Кбит/сек
Альбом : A Trip A Stumble A Fall Down On Your Knees
Альбом/Исполнитель : Seasick Steve
Трек : Funky Music
Трек/Положение : 09
Исполнитель : Seasick Steve
Продюсер : So Recordings
Метка : So Recordings
Жанр : Blues Rock
Дата записи : 2024-06-07
ISRC : GBAJC2400009
Авторское право : 2024 SO Recordings / Silva Screen Records Limited 2024 SO Recordings / Silva Screen Records Limited
Примечание : Telegram @Music Blocks
UPC : 0822166000010
MEDIATYPE : album
ITUNESADVISORY : 0

Аудио
Формат : FLAC
Формат/Информация : Free Lossless Audio Codec
Продолжительность : 4 м. 10 с.
Вид битрейта : Переменный
Битрейт : 2 875 Кбит/сек
Каналы : 2 канала
Channel layout : L R
Частота : 96,0 КГц
Битовая глубина : 24 бит
Метод сжатия : Без потерь
Размер потока : 85,9 Мбайт (100%)
Библиотека кодирования : libFLAC 1.1.0 (2003-01-26)
MD5 of the unencoded content : 00000000000000000000000000000000

Общее
Полное имя : F:\Seasick Steve - A Trip A Stumble A Fall Down On Your Knees (2024)\10 - Cryin' Out Loud.flac
Формат : FLAC
Формат/Информация : Free Lossless Audio Codec
Размер файла : 84,8 Мбайт
Продолжительность : 4 м. 15 с.
Режим общего битрейта : Переменный
Общий поток : 2 786 Кбит/сек
Альбом : A Trip A Stumble A Fall Down On Your Knees
Альбом/Исполнитель : Seasick Steve
Трек : Cryin' Out Loud
Трек/Положение : 10
Исполнитель : Seasick Steve
Продюсер : So Recordings
Метка : So Recordings
Жанр : Blues Rock
Дата записи : 2024-06-07
ISRC : GBAJC2400010
Авторское право : 2024 SO Recordings / Silva Screen Records Limited 2024 SO Recordings / Silva Screen Records Limited
Примечание : Telegram @Music Blocks
UPC : 0822166000010
MEDIATYPE : album
ITUNESADVISORY : 0

Аудио
Формат : FLAC
Формат/Информация : Free Lossless Audio Codec
Продолжительность : 4 м. 15 с.
Вид битрейта : Переменный
Битрейт : 2 786 Кбит/сек
Каналы : 2 канала
Channel layout : L R
Частота : 96,0 КГц
Битовая глубина : 24 бит
Метод сжатия : Без потерь
Размер потока : 84,8 Мбайт (100%)
Библиотека кодирования : libFLAC 1.1.0 (2003-01-26)
MD5 of the unencoded content : 00000000000000000000000000000000

Общее
Полное имя : F:\Seasick Steve - A Trip A Stumble A Fall Down On Your Knees (2024)\11 - Soul Food.flac
Формат : FLAC
Формат/Информация : Free Lossless Audio Codec
Размер файла : 86,3 Мбайт
Продолжительность : 4 м. 22 с.
Режим общего битрейта : Переменный
Общий поток : 2 761 Кбит/сек
Альбом : A Trip A Stumble A Fall Down On Your Knees
Альбом/Исполнитель : Seasick Steve
Трек : Soul Food
Трек/Положение : 11
Исполнитель : Seasick Steve
Продюсер : So Recordings
Метка : So Recordings
Жанр : Blues Rock
Дата записи : 2024-06-07
ISRC : GBAJC2400011
Авторское право : 2024 SO Recordings / Silva Screen Records Limited 2024 SO Recordings / Silva Screen Records Limited
Примечание : Telegram @Music Blocks
UPC : 0822166000010
MEDIATYPE : album
ITUNESADVISORY : 0

Аудио
Формат : FLAC
Формат/Информация : Free Lossless Audio Codec
Продолжительность : 4 м. 22 с.
Вид битрейта : Переменный
Битрейт : 2 761 Кбит/сек
Каналы : 2 канала
Channel layout : L R
Частота : 96,0 КГц
Битовая глубина : 24 бит
Метод сжатия : Без потерь
Размер потока : 86,2 Мбайт (100%)
Библиотека кодирования : libFLAC 1.1.0 (2003-01-26)
MD5 of the unencoded content : 00000000000000000000000000000000

Общее
Полное имя : F:\Seasick Steve - A Trip A Stumble A Fall Down On Your Knees (2024)\12 - Elisabeth.flac
Формат : FLAC
Формат/Информация : Free Lossless Audio Codec
Размер файла : 74,1 Мбайт
Продолжительность : 4 м. 11 с.
Режим общего битрейта : Переменный
Общий поток : 2 475 Кбит/сек
Альбом : A Trip A Stumble A Fall Down On Your Knees
Альбом/Исполнитель : Seasick Steve
Трек : Elisabeth
Трек/Положение : 12
Исполнитель : Seasick Steve
Продюсер : So Recordings
Метка : So Recordings
Жанр : Blues Rock
Дата записи : 2024-06-07
ISRC : GBAJC2400012
Авторское право : 2024 SO Recordings / Silva Screen Records Limited 2024 SO Recordings / Silva Screen Records Limited
Примечание : Telegram @Music Blocks
UPC : 0822166000010
MEDIATYPE : album
ITUNESADVISORY : 0

Аудио
Формат : FLAC
Формат/Информация : Free Lossless Audio Codec
Продолжительность : 4 м. 11 с.
Вид битрейта : Переменный
Битрейт : 2 474 Кбит/сек
Каналы : 2 канала
Channel layout : L R
Частота : 96,0 КГц
Битовая глубина : 24 бит
Метод сжатия : Без потерь
Размер потока : 74,1 Мбайт (100%)
Библиотека кодирования : libFLAC 1.1.0 (2003-01-26)
MD5 of the unencoded content : 00000000000000000000000000000000

Общее
Полное имя : F:\Seasick Steve - A Trip A Stumble A Fall Down On Your Knees (2024)\Cover.jpg
Формат : JPEG
Размер файла : 7,69 Мбайт

Изображения
Формат : JPEG
Ширина : 3 000 пикселей
Высота : 3 000 пикселей
Цветовое пространство : YUV
Субдискретизация насыщенности : 4:4:4
Битовая глубина : 8 бит
Метод сжатия : С потерями
Размер потока : 7,69 Мбайт (100%)

Общее
Полное имя : F:\Seasick Steve - A Trip A Stumble A Fall Down On Your Knees (2024)\Desktop.ini
Размер файла : 94,0 байт

Общее
Полное имя : F:\Seasick Steve - A Trip A Stumble A Fall Down On Your Knees (2024)\foo_dr.txt
Размер файла : 1,49 Кбайт
Время раздачи: 24\7 на раздачи которым больше недели, не возвращаюсь (минимум до появления первых 3-5 скачавших)
[NNMClub.to]_Seasick Steve - A Trip A Stumble A Fall Down On Your Knees (2024).torrent
 Торрент:   Зарегистрирован
 
Зарегистрируйтесь и скачайте торрент!
11.3 KB

Примагнититься
 Зарегистрирован:   10 Июл 2024 07:59:02
 Размер:   1.04 GB  (
 Рейтинг:    (Голосов: 2)
 Поблагодарили:   33
 Проверка:   Оформление проверено модератором 10 Июл 2024 10:54:57
Как cкачать  ·  Как раздать  ·  Правильно оформить  ·  Поднять ратио!  
stapr
Стаж: 14 лет 2 мес.
Сообщений: 56
Ratio: 8.225
Раздал: 2.094 TB
4.83%
russia.gif
Шикарный блюз! Спасибо, что дали возможность познакомиться Seasick Steve!
kostenkoyuriy
Стаж: 5 лет 1 мес.
Сообщений: 101
Ratio: 6.929
97.03%
Вот это реально БЛЮЗ. Кто в теме, тот поймет о чем я. Браво!
Показать сообщения:   
Начать новую тему   Ответить на тему    Торрент-трекер NNM-Club -> HD Audio и Многоканальная Музыка -> WEB-DL-Audio Часовой пояс: GMT + 3
Страница 1 из 1