Классический форум-трекер
canvas not supported
Нас вместе: 4 171 452

Уроки рыбалки от братьев Щербаковых. Выпуск 39 "Фидер и пикер 1. На стоячем водоеме с берега" VHSRip


 
 
RSS
Начать новую тему   Ответить на тему    Торрент-трекер NNM-Club -> Спорт и активный отдых -> Рыбалка и Охота
Автор Сообщение
occlusion ®
Стаж: 14 лет 7 мес.
Сообщений: 250
Ratio: 7.375
Поблагодарили: 9635
100%
Откуда: Moscow
ussr.gif
Уроки рыбалки от братьев Щербаковых, 39 выпуск "Фидер и пикер 1. На стоячем водоеме с берега"
Жанр: спорт, рыбалка

Описание:
Ловля на фидеры и пикеры очень интересна и по-своему увлекательна. Вы узнаете что из себя представляют эти снасти, в чем их отличия, как подразделяются, узнаете как правильно выбрать себе удилище, как ими пользоваться, и много других полезных советов.

Качество видео: VHSRip
Продолжительность: 01:03:00

Видео: XviD 512x384 px
Аудио: MP3
Код: выделить все
Общее
Полное имя                               : 39 Фидер и пикер 1. На стоячем водоеме с берега.avi
Формат                                   : AVI
Формат/Информация                        : Audio Video Interleave
Размер файла                             : 423 Мбайт
Продолжительность                        : 1 ч. 3 м.
Общий поток                              : 923 Кбит/сек

Видео
Идентификатор                            : 0
Формат                                   : MPEG-4 Visual
Профиль формата                          : Advanced Simple@L5
Настройки формата                        : BVOP2
Параметр BVOP формата                    : 2
Параметр QPel формата                    : Нет
Параметр GMC формата                     : Без точки перехода
Параметр матрицы формата                 : Default (H.263)
Идентификатор кодека                     : XVID
Идентификатор кодека/Подсказка           : XviD
Продолжительность                        : 1 ч. 3 м.
Битрейт                                  : 800 Кбит/сек
Ширина                                   : 512 пикселей
Высота                                   : 384 пикселя
Соотношение сторон                       : 4:3
Частота кадров                           : 25,000 кадров/сек
Цветовое пространство                    : YUV
Субдискретизация насыщенности            : 4:2:0
Битовая глубина                          : 8 бит
Тип развёртки                            : Прогрессивная
Метод сжатия                             : С потерями
Бит/(Пиксели*Кадры)                      : 0.163
Размер потока                            : 366 Мбайт (87%)
Библиотека кодирования                   : XviD 1.2.0SMP (UTC 2006-01-08)

Аудио
Идентификатор                            : 1
Формат                                   : MPEG Audio
Версия формата                           : Version 1
Профиль формата                          : Layer 3
Настройки формата                        : Joint stereo / MS Stereo
Идентификатор кодека                     : 55
Идентификатор кодека/Подсказка           : MP3
Продолжительность                        : 38 м. 23 с.
Продолжительность оригинала              : 1 ч. 3 м.
Вид битрейта                             : Постоянный
Битрейт                                  : 32,0 Кбит/сек
Каналы                                   : 2 канала
Частота                                  : 48,0 КГц
Метод сжатия                             : С потерями
Размер потока                            : 50,5 Мбайт (12%)
Выравнивание                             : Соединение по промежуткам
Продолжительность промежутка             : 24  мс. (0,60 видеокадр)
Библиотека кодирования                   : LAME3.97 (beta)
Скриншоты:


Все релизы уроков рыбалки от братьев Щербаковых в Клубе
39 Фидер и пикер 1. На стоячем водоеме с берега.avi.torrent
 Торрент: Платиновая раздача  Зарегистрирован
 
Скачать


Примагнититься
 Зарегистрирован:   21 Окт 2019 18:19:50
 Размер:   423 MB  (
 Рейтинг:   4.7 (Голосов: 55)
 Поблагодарили:   210
 Проверка:   Оформление проверено модератором 21 Окт 2019 20:43:06
Как cкачать  ·  Как раздать  ·  Правильно оформить  ·  Поднять ратио!  
vikgold
Uploader 1000+
 
Стаж: 13 лет 2 мес.
Сообщений: 71
Ratio: 1602.647
Поблагодарили: 3
100%
ussr.gif
Спасибо.
Kalex
Администратор
Стаж: 14 лет 3 мес.
Сообщений: 39677
Ratio: 120.231
Поблагодарили: 14172
100%
nnm-club.gif
Торрент перерегистрирован в рамках акции Включаем DHT в древних раздачах
Теперь вам нужно его скачать и открыть в торрент-клиенте, указав в качестве места сохранения раздаваемый файл или папку.

_________________
NNMClub и IPv6/Teredo
... если преступников недостаточно, их надо создавать. Кому нужна нация, состоящая сплошь из законопослушных граждан? Какая от нее польза? А вот издайте законы, которые нельзя ни соблюдать, ни проводить в жизнь, ни объективно трактовать, и вы получите нацию нарушителей, а значит, сможете заработать на преступлениях... /Айн Рэнд, «Атлант расправил плечи»/
Показать сообщения:   
Начать новую тему   Ответить на тему    Торрент-трекер NNM-Club -> Спорт и активный отдых -> Рыбалка и Охота Часовой пояс: GMT + 3
Страница 1 из 1