Классический форум-трекер
canvas not supported
Нас вместе: 4 172 083

Подвиги молодого Дон Жуана / L'iniziazione / Les Exploits d'un jeune Don Juan (1986) DVDRip


 
 
RSS
Начать новую тему   Ответить на тему    Торрент-трекер NNM-Club -> Артхаус -> Авторское кино
Автор Сообщение
Владимир 1952 ®
Стаж: 12 лет 6 мес.
Сообщений: 26
Ratio: 17.965
Раздал: 1.138 TB
Поблагодарили: 969
53.85%
Откуда: Оренбург
russia.gif
Подвиги молодого Дон Жуана / L'iniziazione / Les Exploits d'un jeune Don Juan (1986) DVDRip
Русское название: Подвиги молодого Дон Жуана
Оригинальное название: Les Exploits d'un jeune Don Juan / L'iniziazione
Производство: Италия - Франция
Год выпуска: 1986
Жанр: Комедия, Эротика

Описание фильма:
Фильм «Подвиги молодого Дон Жуана» поставлен по одноимённоой книге писателя и поэта Гийома Аполлинера, эдакая французская версия похождений начинающего сластолюбца.
Всё началось с того, что шестнадцатилетний парнишка, далеко не аполлон, но с большим мужским достоинством прибыл на летние каникулы в загородное богатое поместье. И может, не суждено ему было бы разгуляться так среди множества молоденьких не очень свежих дамочек, но нагрянула Первая мировая война и все мужчины ушли на фронт. Вот и позарилась одна на юную плоть, а плоть оказалась очень даже хороша собой, и показал тогда молодой повеса себя во всей красе, и все от мала до велика остались довольны весёлым летом, несмотря на войну…

Режиссер: Джанфранко Мингоцци
Актеры: Фабрис Джоссо /Fabrice Josso/, Серена Гранди /Serena Grandi/, Клодин Аужер /Claudine Auger/, Марина Влади /Marina Vlady/, Руфус /Rufus/

Продолжительность: 01:35:58
Качество видео: DVDRip
Перевод: Одноголосый закадровый



Видео: DivX 5 720x432 25fps 1099 kbps
Аудио #1: MP3 44100Hz stereo 112 kbps (Русский)
Аудио #2: MP3 48000Hz stereo 128 kbps (Итальянский)
Код:
General
Complete name                            : D:\_Video_DEL\Все Дон Жуаны\Podvigi molodogo Don Zhuana (1987) DVDRip.avi
Format                                   : AVI
Format/Info                              : Audio Video Interleave
File size                                : 929 MiB
Duration                                 : 1h 35mn
Overall bit rate                         : 1 354 Kbps
Writing application                      : VirtualDubMod 1.5.10.1 Рус от Stvens Inc.™ www.stvens.amillo.net (build 2439/release)
Writing library                          : VirtualDubMod build 2439/release

Video
ID                                       : 0
Format                                   : MPEG-4 Visual
Format settings, BVOP                    : 1
Format settings, QPel                    : No
Format settings, GMC                     : No warppoints
Format settings, Matrix                  : Default (H.263)
Muxing mode                              : Packed bitstream
Codec ID                                 : DX50
Codec ID/Hint                            : DivX 5
Duration                                 : 1h 35mn
Bit rate                                 : 1 099 Kbps
Width                                    : 720 pixels
Height                                   : 432 pixels
Display aspect ratio                     : 1.667
Frame rate                               : 25.000 fps
Color space                              : YUV
Chroma subsampling                       : 4:2:0
Bit depth                                : 8 bits
Scan type                                : Progressive
Compression mode                         : Lossy
Bits/(Pixel*Frame)                       : 0.141
Stream size                              : 755 MiB (81%)
Writing library                          : DivX 5.2.1 Alpha (UTC 2004-09-08)

Audio #1
ID                                       : 1
Format                                   : MPEG Audio
Format version                           : Version 1
Format profile                           : Layer 3
Mode                                     : Joint stereo
Mode extension                           : MS Stereo
Codec ID                                 : 55
Codec ID/Hint                            : MP3
Duration                                 : 1h 35mn
Bit rate mode                            : Constant
Bit rate                                 : 112 Kbps
Channel(s)                               : 2 channels
Sampling rate                            : 44.1 KHz
Compression mode                         : Lossy
Stream size                              : 76.9 MiB (8%)
Alignment                                : Split accross interleaves
Interleave, duration                     : 40 ms (1.00 video frame)
Interleave, preload duration             : 500 ms

Audio #2
ID                                       : 2
Format                                   : MPEG Audio
Format version                           : Version 1
Format profile                           : Layer 3
Codec ID                                 : 55
Codec ID/Hint                            : MP3
Duration                                 : 1h 35mn
Bit rate mode                            : Constant
Bit rate                                 : 128 Kbps
Channel(s)                               : 2 channels
Sampling rate                            : 48.0 KHz
Compression mode                         : Lossy
Stream size                              : 87.9 MiB (9%)
Alignment                                : Split accross interleaves
Interleave, duration                     : 40 ms (1.00 video frame)
Interleave, preload duration             : 500 ms
Скриншоты:
[NNM-Club.ru]_Exploits d'un jeune Don Juan, Les.avi.torrent
 Торрент: Платиновая раздача  Зарегистрирован
 
Скачать


 Зарегистрирован:   20 Фев 2010 21:59:56
 Размер:   929 MB  (
 Рейтинг:   4.2 (Голосов: 38)
 Поблагодарили:   176
 Проверка:   Оформление проверено модератором 21 Фев 2010 00:17:56
Как cкачать  ·  Как раздать  ·  Правильно оформить  ·  Поднять ратио!  
godcat
Стаж: 13 лет 10 мес.
Сообщений: 62
Ratio: 24.719
Поблагодарили: 183
100%
ussr.gif
Роджер, 16-летний юноша, стремится потерять свою девственность на каникулах в загородном доме своих родителей, полном симпатичных и раскованных девиц, и женщин разного возраста и происхождения. Его первоначальные усилия не увенчались успехом. Но разразившаяся Первая мировая война, когда все мужчины отправились на защиту отечества, преподнесла ему неожиданную возможность оказаться в этом "букете" страстных дам.
Свой первый сексуальный опыт он приобрёл с горничной. В скором времени следующими оказались его тетя, его сестра и все другие представительницы прекрасного пола в быстром порядке правопреемства. Даже его Роджера семилетняя сестрёнка была вовлечена в любовные похождения своего брата на уровне знающей толк в этом деле советчицы. В финале этой комедии Роджеру удаётся выдать замуж всех забеременевших от него женщин за вернувшихся с войны мужчин.

... Таким образом "посвящение" Роджера в мужчины на его каникулах, с приобретением завидного сексуального опыта при том, и с участием звёзд кино прошлого века: Marina Vlady, Serena Grand, Claudine Auger, и Berangere Bonvoisin, прошло на зависть успешно.

Экранизация одноименного романа Guillaume Apollinaire "Похождения молодого Дона Джованни" (Le Imprese di un giovane Don Giovanni).

Комедия с элементами эротики.
Salvodor616
Стаж: 10 лет 7 мес.
Сообщений: 15
Ratio: 13.916
100%
russia.gif
Что нибуть похожее если кто знает напишите название в лс пожалуйста))
Показать сообщения:   
Начать новую тему   Ответить на тему    Торрент-трекер NNM-Club -> Артхаус -> Авторское кино Часовой пояс: GMT + 3
Страница 1 из 1