Классический форум-трекер
canvas not supported
Нас вместе: 4 206 101

Гарри Поттер и термоядерный булыжник / Harry Potter and the Sorcerer's Stone (2001) DVDRip


 
 
RSS
Начать новую тему   Ответить на тему    Торрент-трекер NNM-Club -> Зарубежное кино -> Зарубежные Фильмы (SD)
Автор Сообщение
Mcline ®
 
Стаж: 15 лет 6 мес.
Сообщений: 311
Ratio: 6.702
Поблагодарили: 1964
45.98%
Откуда: USSR
ussr.gif
Гарри Поттер и термоядерный булыжник / Harry Potter and the Sorcerer's Stone (2001) DVDRip
Год выпуска: 2001
Жанр: Фэнтези, Семейный, Пародия

Описание:
В высшем магическом ПТУ "Хогвартс" происходит что-то непонятное. Григорий Поттер (или просто Гарри) узнает о своём магическом даре, а Хагрид из хранилища ядерных боеголовок берёт неизвестный контейнер. И только потом бедный мальчик узнает, что в контейнере содержался ядерный заряд, за которым неистово гоняется террорист, у которого кличка Володя Морда и который в прошлом надавал Гарри световым мечом.

Режиссер: Крис Коламбус
Актеры: Ричард Харрис, Мэгги Смит, Робби Колтрейн, Саундерс Триплетс, Дэниэл Рэдклифф, Фиона Шоу

Продолжительность: 02:21:38
Перевод: Одноголосый закадровый
Автор перевода: Гоблин (Д.Пучков)

Видеокодек: DivX 5
Битрейт видео: ~1056 Kbps
Размер кадра: 640*272
Качество видео: DVDRip
Аудиокодек: MP3
Битрейт аудио: 210 Kbps Stereo
Код: выделить все
Полное имя                               : /Гарри Поттер и термоядерный булыжник - Harry Potter and the Sorcerers Stone (gonfilm).avi
Формат                                   : AVI
Формат/Информация                        : Audio Video Interleave
Размер файла                             : 1,30 Гбайт
Продолжительность                        : 2 ч. 26 м.
Режим общего битрейта                    : Переменный
Общий поток                              : 1272 Кбит/сек
Программа кодирования                    : VirtualDubModRus 1.5.10.2 (build 2540/release)
Библиотека кодирования                   : VirtualDubMod build 2540/release
Авторское право                          : diabloxiii@permonline.ru (2776568)

Видео
Идентификатор                            : 0
Формат                                   : MPEG-4 Visual
Настройки формата                        : BVOP1
Параметр BVOP формата                    : 1
Параметр QPel формата                    : Нет
Параметр GMC формата                     : Без точки перехода
Параметр матрицы формата                 : Default (H.263)
Режим смешивания                         : Сжатый битовый поток
Идентификатор кодека                     : DX50
Идентификатор кодека/Подсказка           : DivX 5
Продолжительность                        : 2 ч. 26 м.
Битрейт                                  : 1056 Кбит/сек
Номинальный битрейт                      : 6951 Кбит/сек
Ширина                                   : 640 пикселей
Высота                                   : 272 пикселя
Соотношение сторон                       : 2,35:1
Частота кадров                           : 25,000 кадров/сек
Цветовое пространство                    : YUV
Субдискретизация насыщенности            : 4:2:0
Битовая глубина                          : 8 бит
Тип развёртки                            : Прогрессивная
Метод сжатия                             : С потерями
Бит/(Пиксели*Кадры)                      : 0.243
Размер потока                            : 1,08 Гбайт (83%)
Библиотека кодирования                   : DivX 5.2.1 (WaffleDay) (UTC 2004-09-08)

Аудио
Идентификатор                            : 1
Формат                                   : MPEG Audio
Версия формата                           : Version 1
Профиль формата                          : Layer 3
Идентификатор кодека                     : 55
Идентификатор кодека/Подсказка           : MP3
Продолжительность                        : 2 ч. 21 м.
Вид битрейта                             : Переменный
Битрейт                                  : 210 Кбит/сек
Каналы                                   : 2 канала
Частота                                  : 44,1 КГц
Частота кадров                           : 38,281 кадров/сек (1152 SPF)
Метод сжатия                             : С потерями
Размер потока                            : 213 Мбайт (16%)
Выравнивание                             : Соединение по промежуткам
Продолжительность промежутка             : 27  мс. (0,67 видеокадр)
Время предзагрузки промежутка            : 95  мс.
Язык                                     : Russian


Время раздачи: круглосуточно
[NNM-Club.ru]_Garri Potter i termoyadernyiy bulyizhnik - Harry Potter and the Sorcerers Stone (gonfilm).avi.torrent
 Торрент: Платиновая раздача  Зарегистрирован
 
Скачать


Примагнититься
 Зарегистрирован:   07 Дек 2018 10:19:53
 Размер:   1.3 GB  (
 Рейтинг:   3.7 (Голосов: 101)
 Поблагодарили:   219
 Проверка:   Оформление проверено модератором 07 Дек 2018 10:19:58
Как cкачать  ·  Как раздать  ·  Правильно оформить  ·  Поднять ратио!  

_________________
Rescue diver PADI, EAN, Dry suit, Ice diver
Mcline ®
 
Стаж: 15 лет 6 мес.
Сообщений: 311
Ratio: 6.702
Поблагодарили: 1964
45.98%
Откуда: USSR
ussr.gif
ещё один мой релиз на тему альтернативного перевода фильмов о Гаррике Поттере
http://nnm-club.me/forum/viewtopic.php?t=181168

_________________
Rescue diver PADI, EAN, Dry suit, Ice diver
Mcline ®
 
Стаж: 15 лет 6 мес.
Сообщений: 311
Ratio: 6.702
Поблагодарили: 1964
45.98%
Откуда: USSR
ussr.gif
что удивляет, ещё никто не скачал, а уже 4 оценки стоит на общую сумму 3,3. Как оценили... ума не приложу

_________________
Rescue diver PADI, EAN, Dry suit, Ice diver
cool_man
Стаж: 12 лет 6 мес.
Сообщений: 4
Ratio: 10.907
Раздал: 306 GB
Поблагодарили: 1
64.29%
pirates.png
Посмотрел, ничего от Пучкова тут и нету. :убится ап стену:
Ярик Федин
Стаж: 12 лет 6 мес.
Сообщений: 7
Ratio: 2.417
100%
ukraine.gif
[чудесно]!Фильм ржач!
Tymonr
Стаж: 12 лет 6 мес.
Сообщений: 188
Ratio: 16.53
Поблагодарили: 52
100%
Мне эта группа больше даже нравиться чем гоблин

_________________
I NEED FOR SP>E>E>E>E>ED
(+LOAD..LOAD..LOAD..LOAD+)
PlayStation
Стаж: 15 лет 6 мес.
Сообщений: 957
Ratio: 43.742
Поблагодарили: 941
100%
confederate.gif
не досмотрел до конца. был хоть и убогий, но вроде как детский фильм. сделали какое-то г..но с кучей тупых приколов на тему травы, водки и порнухи.

_________________
PlayStation.
Real game is coming !!!
Alekseir162
Стаж: 12 лет 9 мес.
Сообщений: 18
Ratio: 18.087
100%
russia.gif
Спасибо! :респект:

_________________
Я еще водочки выпью?
Автолик
Стаж: 10 лет 8 мес.
Сообщений: 5
Ratio: 29.557
14.5%
Это не Гоблин. И шутки, не смешные.
goodmax
Стаж: 13 лет 1 мес.
Сообщений: 29
Ratio: 4.646
5.48%
papuanewguinea.gif
Бред. Полный бред. Бред в степени бесконечность.
kapandr
Стаж: 11 лет 7 мес.
Сообщений: 1
Ratio: 18.297
28.57%
russia.gif
Вообще-то это творчество к дяде Диме не имеет никакого отношения - этот шедевр создали люди из студии "Гонфильм"
https://uft.me/films/gryaznyj-garri-i-termoyadernyj-bulyzhnik
rolee73
Стаж: 11 лет 6 мес.
Сообщений: 1
Ratio: 17.799
Раздал: 16.27 TB
100%
belarus.gif
:D класс
Показать сообщения:   
Начать новую тему   Ответить на тему    Торрент-трекер NNM-Club -> Зарубежное кино -> Зарубежные Фильмы (SD) Часовой пояс: GMT + 3
Страница 1 из 1