Классический форум-трекер
canvas not supported
Нас вместе: 4 178 331

Высота (1957) DVDRip


 
 
RSS
Начать новую тему   Ответить на тему    Торрент-трекер NNM-Club -> Классика кино и Старые фильмы до 90-х -> Отечественная Классика (HD*Rip/LQ, DVDRip, SATRip, VHSRip)
Автор Сообщение
youmen ®
Стаж: 12 лет
Сообщений: 32
Ratio: 2.946
Поблагодарили: 4100
100%
ukraine.gif
Высота (1957) DVDRip
Жанр: Мелодрама
Режиссер: Александр Зархи
Актеры: Николай Рыбников, Инна Макарова, Марина Стриженова, Г. Карнович-Валуа, В.Макаров, Б.Ситко, Лев Борисов.

Продолжительность: 01:28:09

Описание:
На строительство комбината приезжает бригада монтажников-верхолазов, им предстоит осуществить монтаж домны по новому методу. Кое-кто с перепугу уезжает в командировку, а в целом предложение принято и верхолазы приступают к работе.

Фильм о непростых характерах простых советских людей, умеющих трудиться, мечтать, любить — строить большое человеческое счастье.

Дополнительно: Реставрация изображения и звука "Крупный план"

Дата мировой премьеры: 29 апреля 1957
Рейтинг:


Видеокодек: DivX 4/5/6
Битрейт видео: ~2222 kb/s
Размер кадра: 708x548. 25 fps. 4:3. Progressive
Качество видео: DVDRip
Аудиокодек: MP3
Битрейт аудио: 132 kb/s. 44.1 kHz. 2 channels
Общее
Полное имя : E:\Торренты\Реставрация фильмов\Vysota_DVDRip.1957.avi
Формат : AVI
Формат/Информация : Audio Video Interleave
Размер файла : 1,46 Гбайт
Продолжительность : 1 ч. 28 м.
Общий поток : 2366 Кбит/сек
Программа кодирования : VirtualDubMod 1.5.10.2 (build 2540/release)
Библиотека кодирования : VirtualDubMod build 2540/release

Видео
Идентификатор : 0
Формат : MPEG-4 Visual
Параметр BVOP формата : 2
Параметр QPel формата : Нет
Параметр GMC формата : Без точки перехода
Параметр матрицы формата : Default (MPEG)
Режим смешивания : Сжатый битовый поток
Идентификатор кодека : DX50
Идентификатор кодека/Подсказка : DivX 5
Продолжительность : 1 ч. 28 м.
Битрейт : 2222 Кбит/сек
Ширина : 708 пикс.
Высота : 548 пикс.
Соотношение сторон : 1,292
Частота кадров : 25,000 кадр/сек
Цветовое пространство : YUV
Подвыборка цветности : 4:2:0
Битовая глубина : 8 бит
Тип развёртки : Прогрессивная
Метод сжатия : С потерями
Бит/(Пиксели*Кадры) : 0.229
Размер потока : 1,37 Гбайт (94%)
Библиотека кодирования : DivX 6.6.1.4

Аудио
Идентификатор : 1
Формат : MPEG Audio
Версия формата : Version 1
Профиль формата : Layer 3
Режим : Joint stereo
Расширение режима : MS Stereo
Идентификатор кодека : 55
Идентификатор кодека/Подсказка : MP3
Продолжительность : 1 ч. 28 м.
Вид битрейта : Переменный
Битрейт : 132 Кбит/сек
Минимальный битрейт : 32,0 Кбит/сек
Каналы : 2 канала
Частота : 44,1 КГц
Метод сжатия : С потерями
Размер потока : 83,0 Мбайт (6%)
Выравнивание : Соединение по промежуткам
Продолжительность промежутка : 26 мс. (0,65 видеокадр)
Время предзагрузки промежутка : 145 ms
Библиотека кодирования : LAME3.97a
Настройки программы : -m j -V 4 -q 3 -lowpass 18 --vbr-new -b 32


Время раздачи: 24/7 (до первых сидов. Потом по возможности)
Просмотр доступен только для зарегистрированных пользователей
[NNM-Club.ru]_Vysota_DVDRip.1957.avi.torrent
 Торрент: Платиновая раздача  Зарегистрирован
 
Скачать


 Зарегистрирован:   15 Мар 2010 17:48:21
 Размер:   1.46 GB  (
 Рейтинг:   4.8 (Голосов: 84)
 Поблагодарили:   287
 Проверка:   Оформление проверено модератором 15 Мар 2010 23:15:33
Как cкачать  ·  Как раздать  ·  Правильно оформить  ·  Поднять ратио!  
Garryson
Сталкер
Uploader 200+
Стаж: 13 лет 6 мес.
Сообщений: 5022
Ratio: 852.075
Поблагодарили: 166421
100%
Откуда: DFO
Спасибо за релиз
nataaa
Стаж: 12 лет 9 мес.
Сообщений: 8
Ratio: 43.745
100%
russia.gif
нормально раздать можно?
Modus Vivendi
Гость
nataaa писал(а):
раздать

Помогу чуть :да:
nataaa
Стаж: 12 лет 9 мес.
Сообщений: 8
Ratio: 43.745
100%
russia.gif
Modus Vivendi
пасиба /bow
Dudley
Стаж: 11 лет 8 мес.
Сообщений: 275
Ratio: 1.327
0.79%
Откуда: Рашн Колобашн
russia.gif
С реставрацией смотрится как то по-новому что-ли.
smoke26
Стаж: 11 лет 4 мес.
Сообщений: 5
Ratio: 1.895
100%
russia.gif
youmen
Огромное спасибо за этот прекрасный фильм!
almikl
Куратор Детского.
Модератор Видео.
RG Всё лучшее - детям!
Uploader 500+
Стаж: 14 лет 7 мес.
Сообщений: 5108
Ratio: 413.288
Поблагодарили: 124022
100%
Откуда: Дааалекое Подмосковье
russia.gif
Просмотр доступен только для зарегистрированных пользователей
cut12
Покровитель талантов
Uploader 100+
Стаж: 11 лет 8 мес.
Сообщений: 643
Ratio: 432.462
Раздал: 145.8 TB
Поблагодарили: 5593
100%
Откуда: Карелия
russia.gif
Реставрация (полная)
Просмотр доступен только для зарегистрированных пользователей
Показать сообщения:   
Начать новую тему   Ответить на тему    Торрент-трекер NNM-Club -> Классика кино и Старые фильмы до 90-х -> Отечественная Классика (HD*Rip/LQ, DVDRip, SATRip, VHSRip) Часовой пояс: GMT + 3
Страница 1 из 1