Классический форум-трекер
canvas not supported
Нас вместе: 4 235 010

Сказ про то, как царь Петр арапа женил (1976) DVD5 (Реставрация)


 
 
RSS
Начать новую тему   Ответить на тему    Торрент-трекер NNM-Club -> Архив торрентов -> Архив Классики кино и Старых фильмов до 90-х
Автор Сообщение
norg. ®
Стаж: 14 лет 2 мес.
Сообщений: 22
Ratio: 13.207
Поблагодарили: 1712
1.97%
norway.gif
Сказ про то, как царь Петр арапа женил (1976) DVD5
Русское название: Сказ про то, как царь Петр арапа женил
Год выпуска: 1976
Жанр: Мелодрама, Музыка

Описание фильма:
Сказ про то, как однажды царю Петру был подарен маленький чернокожий принц - смышленый мальчуган, который быстро усвоив от Петра все науки, был отправлен во Францию для получения более глубоких знаний и изысканных манер. Вернувшись из Парижа, на одном из балов арап влюбился в дочь богатого дворянина Наташу. Это обстоятельство изменило отношение к нему всего окружения Петра и самого царя. Но немилость только повод для поиска истины. Поэтому наградой за благородство и мужество стала арапу Наташина любовь, новое внимание света и Петра.

Режиссер: Александр Митта
Актеры: Владимир Высоцкий, Алексей Петренко, Иван Рыжов, Михаил Кокшенов, Ирина Мазуркевич, Евгений Митта, Семен Морозов, Валерий Золотухин, Михаил Глузский, Олег Табаков

Продолжительность: 01:35:16
Дата российской премьеры: 06.12.76


Видеокодек: MPEG-2
Битрейт видео: ~5075 Кбит/сек
Размер кадра: 720 х 576
Качество видео: DVD5
Аудио:
1_Русский AC-3 6 ch 448 Кбит/сек
2_Русский AC-3 1 ch 448 Кбит/сек
Общее
Полное имя : H:\Торренты\Реставрация фильмов\ARAP\VIDEO_TS\VTS_02_1.VOB
Формат : MPEG-PS
Размер файла : 1024 Мбайт
Продолжительность : 23 м.
Общий поток : 6084 Кбит/сек

Видео
Идентификатор : 224 (0xE0)
Формат : MPEG Video
Версия формата : Version 2
Профиль формата : Main@Main
Параметр BVOP формата : Да
Параметр матрицы формата : Выборочная
Параметр GOP формата : M=3, N=15
Продолжительность : 23 м.
Битрейт : 5075 Кбит/сек
Ширина : 720 пикселей
Высота : 576 пикселей
Соотношение сторон : 4:3
Частота кадров : 25,000 кадров/сек
Стандарт вещания : PAL
Цветовое пространство : YUV
Субдискретизация насыщенности : 4:2:0
Битовая глубина : 8 бит
Тип развёртки : Чересстрочная
Порядок развёртки : Верхнее поле первое
Метод сжатия : С потерями
Бит/(Пиксели*Кадры) : 0.490
Размер потока : 853 Мбайт (83%)

Аудио #1
Идентификатор : 189 (0xBD)-128 (0x80)
Формат : AC-3
Формат/Информация : Audio Coding 3
Расширение режима : CM (complete main)
Параметр Endianness формата : Big
Режим смешивания : DVD-Video
Продолжительность : 23 м.
Вид битрейта : Постоянный
Битрейт : 448 Кбит/сек
Каналы : 6 каналов
Расположение каналов : Front: L C R, Side: L R, LFE
Частота : 48,0 КГц
Битовая глубина : 16 бит
Метод сжатия : С потерями
Задержка видео : -80 мс.
Размер потока : 75,4 Мбайт (7%)

Аудио #2
Идентификатор : 189 (0xBD)-129 (0x81)
Формат : AC-3
Формат/Информация : Audio Coding 3
Расширение режима : CM (complete main)
Параметр Endianness формата : Big
Режим смешивания : DVD-Video
Продолжительность : 23 м.
Вид битрейта : Постоянный
Битрейт : 448 Кбит/сек
Каналы : 1 канал
Расположение каналов : Front: C
Частота : 48,0 КГц
Битовая глубина : 16 бит
Метод сжатия : С потерями
Задержка видео : -80 мс.
Размер потока : 75,4 Мбайт (7%)

Меню
Title: ARAP
Size: 2.33 Gb ( 2 441 858,00 KBytes ) - DVD-5
Enabled regions: 1, 2, 3, 4, 5, 6, 7, 8

VTS_01 :
Play Length: 00:00:51
Video: PAL 4:3 (720x576) VBR

VTS_02 :
Play Length: 01:35:16
Video: PAL 4:3 (720x576) VBR
Audio:
Russian (Dolby AC3, 6 ch)
Russian (Dolby AC3, 1 ch)

VTS_03 :
Play Length: 00:00:50
Video: PAL 4:3 (720x576) VBR
Audio:
Russian (Dolby AC3, 2 ch)

* Menus Information *

VIDEO_TS Menu
Video:
PAL 4:3 (720x576) VBR
English Language Unit :
Title Menu

VTS_01 Menu
Video:
PAL 4:3 (720x576) VBR
Audio:
Not specified (Dolby AC3, 6 ch)
English Language Unit :
Root Menu

VTS_02 Menu
Video:
PAL 4:3 (720x576) VBR
English Language Unit :
Root Menu

VTS_03 Menu
Video:
PAL 4:3 (720x576) VBR
English Language Unit :
Root Menu
Скриншоты:


Время раздачи: 24/7 - круглосуточно
Реставрация от: cut12
[NNM-Club.ru]_ARAP.torrent
 Торрент: Платиновая раздача  Зарегистрирован
 
Скачать


Примагнититься
 Зарегистрирован:   24 Апр 2010 20:34:38
 Размер:   4.33 GB  (
 Рейтинг:   4.9 (Голосов: 61)
 Поблагодарили:   188
 Проверка:   Оформление проверено модератором 24 Апр 2010 22:44:14
Как cкачать  ·  Как раздать  ·  Правильно оформить  ·  Поднять ратио!  
Garryson
Сталкер
Uploader 200+
Стаж: 15 лет 11 мес.
Сообщений: 4999
Ratio: 414.899
Поблагодарили: 169662
100%
Откуда: DFO
Спасибо за релиз
Никулин Юрий
Стаж: 11 лет 10 мес.
Сообщений: 195
Ratio: 25.881
Раздал: 22.28 TB
100%
Откуда: Приволжский Ф.О.
russia.gif
Спасибо , Вам большое за релиз! Старые фильмы очень трудно найти в качестве. Даже покупая лицензионный диск получаешь"кота в мешке". А, Ваш релиз " Крупный План", да ещё и полная реставация изображения и звука.
cut12
Покровитель талантов
Uploader 100+
Стаж: 14 лет 2 мес.
Сообщений: 641
Ratio: 415.496
Раздал: 145.8 TB
Поблагодарили: 5757
100%
Откуда: Карелия
russia.gif
Реставрация
VEL BAR
Стаж: 12 лет 4 мес.
Сообщений: 320
Ratio: 68.075
100%
Откуда: Далекое прошлое
belarus.gif
В молодости смотрел,фильм запомнился-СПАСИБО!
Топик был перенесен из форума Отечественная Классика (DVD) в форум Архив Классики кино и Старых фильмов до 90-х

Причина переноса: Длительное отсутствие сида на протяжении более 6 месяцев.

Исправил релиз - напиши ЛС Alone_Kedr, дав ссылку на релиз.
Если нет ответа 24 часа - нажми на кнопку "Обратить внимание модераторов".
Показать сообщения:   
Начать новую тему   Ответить на тему    Торрент-трекер NNM-Club -> Архив торрентов -> Архив Классики кино и Старых фильмов до 90-х Часовой пояс: GMT + 3
Страница 1 из 1