Классический форум-трекер
canvas not supported
Нас вместе: 4 233 623

Аполлон 13 / Apollo 13 (1995) HDRip


 
 
RSS
Начать новую тему   Ответить на тему    Торрент-трекер NNM-Club -> Зарубежное кино -> Зарубежные Фильмы (SD)
Автор Сообщение
Dobrenko ®
Стаж: 15 лет 8 мес.
Сообщений: 6502
Ratio: 28.506
Поблагодарили: 755344
100%
Откуда: Одесса-Москва
Аполлон 13 / Apollo 13 (1995) HDRip
Производство: США
Жанр: Приключения, Драма, История

Режиссер: Рон Хауард
Актеры: Том Хэнкс, Билл Пэкстон, Кевин Бэйкон, Гэри Синиз, Эд Хэррис, Кэтлин Куинлэн

Описание:
Прошло меньше года с тех пор, как человек впервые ступил на Луну, американское общество было уверено в том, что "Аполлон 13" будет обычным полетом, пока в эфире не прозвучало: "Хьюстон, у нас проблема". Корабль получил повреждения, и астронавты делают все, что возможно, в этой битве за выживание в 205000 милях от Земли...
Фильм основан на реальных событиях, случившихся 13 апреля 1970 года.



Качество видео: HDRip
Продолжительность: 02:19:00
Перевод: Дублированный

Видео: XviD, 720 x 304; 23.976 fps; 1845 kbps; 0.35 bit/pixel
Звук: 48 kHz; 5.1 ch; 384.00 kbps; AC3 Dolby Digital
Общее
Полное имя : /Apollon.13.avi
Формат : AVI
Формат/Информация : Audio Video Interleave
Профиль формата : OpenDML
Размер файла : 2,18 Гбайт
Продолжительность : 2 ч. 19 м.
Общий поток : 2236 Кбит/сек
Режиссёр : SENATOR (HDRip 720)
Программа кодирования : VirtualDubMod 1.5.10.2 (build 2542/release)
Авторское право : HQ-ViDEO (www.hq-video.ru)
Примечание : 3.06.2008

Видео
Идентификатор : 0
Формат : MPEG-4 Visual
Профиль формата : Advanced Simple@L5
Настройки формата : BVOP1
Параметр BVOP формата : 1
Параметр QPel формата : Нет
Параметр GMC формата : Без точки перехода
Параметр матрицы формата : Default (MPEG)
Идентификатор кодека : XVID
Идентификатор кодека/Подсказка : XviD
Продолжительность : 2 ч. 19 м.
Битрейт : 1840 Кбит/сек
Ширина : 720 пикселей
Высота : 304 пикселя
Соотношение сторон : 2,35:1
Частота кадров : 23,976 (24000/1001) кадра/сек
Цветовое пространство : YUV
Субдискретизация насыщенности : 4:2:0
Битовая глубина : 8 бит
Тип развёртки : Прогрессивная
Метод сжатия : С потерями
Бит/(Пиксели*Кадры) : 0.351
Размер потока : 1,80 Гбайт (82%)
Библиотека кодирования : XviD 1.2.0.dev47 (UTC 2006-11-01)

Аудио
Идентификатор : 1
Формат : AC-3
Формат/Информация : Audio Coding 3
Идентификатор кодека : 2000
Продолжительность : 2 ч. 19 м.
Вид битрейта : Постоянный
Битрейт : 384 Кбит/сек
Каналы : 6 каналов
Расположение каналов : Front: L C R, Side: L R, LFE
Частота : 48,0 КГц
Частота кадров : 31,250 кадров/сек (1536 SPF)
Битовая глубина : 16 бит
Метод сжатия : С потерями
Размер потока : 384 Мбайт (17%)
Выравнивание : Разделение по промежуткам
Продолжительность промежутка : 42 мс. (1,00 видеокадр)
Время предзагрузки промежутка : 500 мс.
Service kind : Complete Main
Скриншоты:


Время раздачи: 24/7 - круглосуточно
[NNM-Club.ru]_Apollon.13.avi.torrent
 Торрент: Платиновая раздача  Зарегистрирован
 
Скачать


Примагнититься
 Зарегистрирован:   07 Дек 2018 09:42:50
 Размер:   2.18 GB  (
 Рейтинг:   4.8 (Голосов: 117)
 Поблагодарили:   504
 Проверка:   Оформление проверено модератором 07 Дек 2018 09:45:05
Как cкачать  ·  Как раздать  ·  Правильно оформить  ·  Поднять ратио!  
Vitallyn
Стаж: 14 лет 8 мес.
Сообщений: 1826
Ratio: 32.421
Поблагодарили: 34579
100%
Откуда: Київ
ukraine.gif
:клево:
Смотрел, хороший фильм :да:
viking_o
Стаж: 14 лет 3 мес.
Сообщений: 679
Ratio: 8.412
Раздал: 3.203 TB
Поблагодарили: 9735
100%
Откуда: Краснодар
russia.gif
Спасибо

_________________
djSamara
Стаж: 13 лет 7 мес.
Сообщений: 542
Ratio: 6.89
Поблагодарили: 18
100%
Откуда: Эмпайр-Бэй
russia.gif
:респект:

_________________
ASUS P8Z77-V LX,Intel core i5-3570K,3.40GHz,система охлаждения Deepcool Assassin,Palit JetStream GeForce GTX 1070 8Gb- ,Plextor PX-128M5S,Western Digital WD10EARS-2tb-5шт,DDR3 Kingston-32gb 1333 МГц,БП Zalman 1200W [ZM1200-ARX] .Visca el Barça
schaRazdam
Стаж: 11 лет 1 мес.
Сообщений: 422
Ratio: 18.297
Поблагодарили: 6467
100%
Поправьте шапку
Спасибо за фильм
nikpolysh
Стаж: 9 лет 10 мес.
Сообщений: 11
Ratio: 12.47
0.42%
Это первая и последняя попытка полета американских астронавтов к луне. Наверное пытались легализовать ранее сделанные фейковые высадкки на луну.
Moorre
Uploaders 300+
Стаж: 14 лет 6 мес.
Сообщений: 327
Ratio: 42K
Раздал: 346.1 TB
Поблагодарили: 1714
100%

_________________
Download = 100 Mbit, Upload = 100 Mbit
teplo-tex
Стаж: 7 лет 4 мес.
Сообщений: 39
Ratio: 2.401
0.32%
Palau.gif
Мне больше Аполлон 18 нравиться
Аполлон 18 / Apollo 18 (2011) BDRip
Показать сообщения:   
Начать новую тему   Ответить на тему    Торрент-трекер NNM-Club -> Зарубежное кино -> Зарубежные Фильмы (SD) Часовой пояс: GMT + 3
Страница 1 из 1