Классический форум-трекер
canvas not supported
Нас вместе: 4 232 315

John Pizzarelli - Bossa Nova (2004) [FLAC|Lossless]<Jazz, Bossa-nova>


 
 
RSS
Начать новую тему   Ответить на тему    Торрент-трекер NNM-Club -> Jazz, Blues, Soul -> Jazz (Lossless)
Автор Сообщение
mr_brick ®
Стаж: 14 лет
Сообщений: 175
Ratio: 20.93
Поблагодарили: 8649
100%
Откуда: Липецк
russia.gif
John Pizzarelli - Bossa Nova (2004)
Страна: USA
Издатель (лейбл): TELARC
Номер по каталогу: CD-83591
Год: 2004
Жанр: Jazz, Bossa-nova
Продолжительность: 00:53:58

Кодек: FLAC
Битрейт: Lossless
Тип раздачи: image+.cue
Наличие сканов в содержимом раздачи: Yes

Треклист:
01. One Note Samba (Antonio Carlos Jobim) 4:42
02. Fascinatin’ Rhythm (George Gerschwin/Ira Greschwin) 3:53
03. The Girl From Ipanema (Antonio Carlos Jobim/Vinicius De Moraes) 4:55
04. Your Smiling Face (James Taylor) 2:57
05. Estate (Bruno Martino/Bruno Brighetti) 4:58
06. Desafinado (Off Key) (Antonio Carlos Jobim/Newton Mendonca) 2:35
07. Aquelas Coisas Todas (All Those Things) (Toninho Horta) 5:28
08. I Remember (Stephen Sondheim) 3:45
09. Francesca (John Pizzarelli) 4:32
10. Love Dance (Ivan Lins/Paul Williams) 3:39
11. So Danco Samba (Antonio Carlos Jobim/Vinicius De Moraes) 3:29
12. Aguas De Marco (Waters Of March) (Antonio Carlos Jobim) 3:59
13. Soares Samba (John Pizzarelli) 4:56
Personnel:

John Pizzarelli (Guitar and Vocals)
Ray Kennedy (Piano)
Martin Pizzarelli (Double Bass)
Paulinho Braga (Drums)
Jim Saporito (Percussion)
Harry Allen (Tenor Saxophone)
Chiara Civello (Backing Vocals)
Cesar Camargo Mariano (Piano) - 7,11
Daniel Jobim (Backing Vocals) - 3
Код: выделить все

REM GENRE Jazz
REM DATE 2004
REM DISCID BD0CA30D
REM COMMENT "ExactAudioCopy v0.99pb4"
PERFORMER "John Pizzarelli"
TITLE "Bossa Nova"
FILE "John Pizzarelli - Bossa Nova.flac" WAVE
  TRACK 01 AUDIO
    TITLE "One Note Samba"
    PERFORMER "John Pizzarelli"
    INDEX 01 00:00:00
  TRACK 02 AUDIO
    TITLE "Fascinatin' Rhythm"
    PERFORMER "John Pizzarelli"
    INDEX 01 04:42:45
  TRACK 03 AUDIO
    TITLE "The Girl From Ipanema"
    PERFORMER "John Pizzarelli"
    INDEX 01 08:35:52
  TRACK 04 AUDIO
    TITLE "Your Smiling Face"
    PERFORMER "John Pizzarelli"
    INDEX 01 13:31:25
  TRACK 05 AUDIO
    TITLE "Estate"
    PERFORMER "John Pizzarelli"
    INDEX 01 16:28:60
  TRACK 06 AUDIO
    TITLE "Desafinado (Off Key)"
    PERFORMER "John Pizzarelli"
    INDEX 01 21:26:74
  TRACK 07 AUDIO
    TITLE "Aquelas Coisas Todas (All Those Things)"
    PERFORMER "John Pizzarelli"
    INDEX 01 24:02:67
  TRACK 08 AUDIO
    TITLE "I Remember"
    PERFORMER "John Pizzarelli"
    INDEX 01 29:31:32
  TRACK 09 AUDIO
    TITLE "Francesca"
    PERFORMER "John Pizzarelli"
    INDEX 01 33:17:21
  TRACK 10 AUDIO
    TITLE "Love Dance"
    PERFORMER "John Pizzarelli"
    INDEX 01 37:49:59
  TRACK 11 AUDIO
    TITLE "So Danco Samba"
    PERFORMER "John Pizzarelli"
    INDEX 01 41:29:44
  TRACK 12 AUDIO
    TITLE "Aguas De Marco (Waters Of March)"
    PERFORMER "John Pizzarelli"
    INDEX 01 44:58:54
  TRACK 13 AUDIO
    TITLE "Soares Samba"
    PERFORMER "John Pizzarelli"
    INDEX 01 48:58:37

Код: выделить все

Exact Audio Copy V0.99 prebeta 4 from 23. January 2008

EAC extraction logfile from 7. June 2010, 13:41

John Pizzarelli / Bossa Nova

Used drive  : _NEC    DVD_RW ND-3500AG   Adapter: 0  ID: 0

Read mode               : Secure
Utilize accurate stream : Yes
Defeat audio cache      : Yes
Make use of C2 pointers : No

Read offset correction                      : 48
Overread into Lead-In and Lead-Out          : No
Fill up missing offset samples with silence : Yes
Delete leading and trailing silent blocks   : No
Null samples used in CRC calculations       : Yes
Used interface                              : Native Win32 interface for Win NT & 2000

Used output format              : User Defined Encoder
Selected bitrate                : 768 kBit/s
Quality                         : High
Add ID3 tag                     : No
Command line compressor         : C:\Program Files\Exact Audio Copy\FLAC\FLAC.EXE
Additional command line options : -6 -V -T "ARTIST=%a" -T "TITLE=%t" -T "ALBUM=%g" -T "DATE=%y" -T "TRACKNUMBER=%n" -T "GENRE=%m" -T "COMMENT=%e" %s -o %d

TOC of the extracted CD

     Track |   Start  |  Length  | Start sector | End sector
    ---------------------------------------------------------
        1  |  0:00.00 |  4:42.45 |         0    |    21194
        2  |  4:42.45 |  3:53.07 |     21195    |    38676
        3  |  8:35.52 |  4:55.48 |     38677    |    60849
        4  | 13:31.25 |  2:57.35 |     60850    |    74159
        5  | 16:28.60 |  4:58.14 |     74160    |    96523
        6  | 21:26.74 |  2:35.68 |     96524    |   108216
        7  | 24:02.67 |  5:28.40 |    108217    |   132856
        8  | 29:31.32 |  3:45.64 |    132857    |   149795
        9  | 33:17.21 |  4:32.38 |    149796    |   170233
       10  | 37:49.59 |  3:39.60 |    170234    |   186718
       11  | 41:29.44 |  3:29.10 |    186719    |   202403
       12  | 44:58.54 |  3:59.58 |    202404    |   220386
       13  | 48:58.37 |  4:56.68 |    220387    |   242654

Range status and errors

Selected range

     Filename J:\eMusic\Rip\John Pizzarelli - Bossa Nova.wav

     Peak level 100.0 %
     Range quality 99.9 %
     Test CRC 9C8893EA
     Copy CRC 9C8893EA
     Copy OK

No errors occurred

AccurateRip summary

Track  1  cannot be verified as accurate (confidence 14)  [12A045CE], AccurateRip returned [B449919C]
Track  2  cannot be verified as accurate (confidence 14)  [A4423AAB], AccurateRip returned [92A22F9A]
Track  3  cannot be verified as accurate (confidence 14)  [53788F4B], AccurateRip returned [964DE762]
Track  4  cannot be verified as accurate (confidence 14)  [90D30A7E], AccurateRip returned [D3170412]
Track  5  cannot be verified as accurate (confidence 14)  [EE36D2FE], AccurateRip returned [930624CB]
Track  6  cannot be verified as accurate (confidence 14)  [CC842B71], AccurateRip returned [AA0DE94C]
Track  7  cannot be verified as accurate (confidence 14)  [104D970E], AccurateRip returned [F1375487]
Track  8  cannot be verified as accurate (confidence 14)  [EF2DDBC1], AccurateRip returned [EC1BF9DE]
Track  9  cannot be verified as accurate (confidence 14)  [C644901B], AccurateRip returned [D32E1B6B]
Track 10  cannot be verified as accurate (confidence 14)  [64C4414A], AccurateRip returned [6E9D58E9]
Track 11  cannot be verified as accurate (confidence 14)  [306A765A], AccurateRip returned [44A93F16]
Track 12  cannot be verified as accurate (confidence 14)  [2CAEF61F], AccurateRip returned [0580D6F1]
Track 13  cannot be verified as accurate (confidence 14)  [71DAE06B], AccurateRip returned [9B0375A4]

No tracks could be verified as accurate
You may have a different pressing from the one(s) in the database

End of status report
Код: выделить все

-----------------------

DON'T MODIFY THIS FILE

-----------------------

PERFORMER: auCDtect Task Manager, ver. 1.6.0 RC1 build 1.6.0.1
Copyright (c) 2008-2010 y-soft. All rights reserved
http://y-soft.org

ANALYZER: auCDtect: CD records authenticity detector, version 0.8.2
Copyright (c) 2004 Oleg Berngardt. All rights reserved.
Copyright (c) 2004 Alexander Djourik. All rights reserved.

FILE: John Pizzarelli - Bossa Nova.flac
  Size: 298353466 Hash: 69863E736D3360D16982D87D85D86FE9 Accuracy: -m0
  Conclusion: CDDA 100%
  Signature: 193BE9370315C6F1232A77A03EC107502FF3764E



Поглощение/вытеснение
Только с согласия релизера

DesideriuM

Реставрация релиза: gvm55
[NNM-Club.ru]_John Pizzarelli - Bossa Nova.torrent
 Торрент: Платиновая раздача  Зарегистрирован
 
Скачать


 Зарегистрирован:   26 Июн 2010 12:17:44
 Размер:   289 MB  (
 Рейтинг:   4.7 (Голосов: 12)
 Поблагодарили:   39
 Проверка:   Оформление проверено модератором 28 Июн 2010 00:04:07
Как cкачать  ·  Как раздать  ·  Правильно оформить  ·  Поднять ратио!  

_________________
Срочно! Меняю листы формата А4 на Ауди той же модели.
Показать сообщения:   
Начать новую тему   Ответить на тему    Торрент-трекер NNM-Club -> Jazz, Blues, Soul -> Jazz (Lossless) Часовой пояс: GMT + 3
Страница 1 из 1