Классический форум-трекер
canvas not supported
Нас вместе: 4 232 312

Ольга Сергеева - Музыка Русского Поозерья (2 CD) (2009) [APE|Lossless]<Folk>


 
 
RSS
Начать новую тему   Ответить на тему    Торрент-трекер NNM-Club -> Other Styles -> Folk (Lossless)
Автор Сообщение
mr_brick ®
Стаж: 14 лет
Сообщений: 175
Ratio: 20.93
Поблагодарили: 8649
100%
Откуда: Липецк
russia.gif
Ольга Сергеева - Музыка Русского Поозерья (2 CD) (2009)
Год: 2009
Жанр: Folk
Продолжительность: 01:24:03

Кодек: APE
Битрейт: Lossless
Тип рипа: image+.cue

Треклист:
ДИСК 1:
01. Календарные песни. С гор-горы сняжки сыплют (Масленка)
02. Календарные песни. Вился хмель по болоту (Масленка)
03. Календарные песни. Мой негодяй захворел (Масленка)
04. Календарные песни. У нас масленица – гуляница (Масленка)
05. Календарные песни. Посею своё горе (Игровая)
06. Свадебные песни. Кумушки. (Духовская)
07. Календарные песни. Иванова матка (Купаленка)
08. Календарные песни. Полянка-круглянка (Купаленка)
09. Календарные песни. Червонная роза (Купаленка)
10. Календарные песни. Дым по полю (Купаленка)
11. Календарные песни. Иван да Марья (Купаленка)
12. Календарные песни. Как за речушкой. (Толотная)
13. Календарные песни. Василь-василёк (Толотная)
14. Календарные песни. Ранешенько-рано (Обжинки)
15. Календарные песни. Жнеи, мои жнеи (Обжинки)
16. Календарные песни. Ехали солдаты (Солдатская)
17. Календарные песни. Ой, да ты, рябинушка (Солдатская)

ДИСК 2

01. Свадебные песни. А на горке против солнышка
02. Свадебные песни. Ой, бел же калач, боярушки
03. Свадебные песни. Нежалостлива Алёнушка
04. Наделяная музыка (Имитация скрипичного наигрыша)
05. Свадебные песни. Ой, расступитесь-разойдитесь! (Плач невесты)
06. Свадебные песни. А нам вера не верится
07. Свадебные песни. Говорил Иванушка с вороным конем
08. Свадебные песни. Не было ветерку-понавеяло
09. Свадебные песни. Плавала утица по синему морю
10. Свадебные песни. На бору тетерёк болмочет
11. Свадебные песни. Как тут жить- в чужи люди йтить
12. Свадебные песни. А у голуба золотая голова (Величальная)
13. Свадебные песни. Лучше нет у нас такого молойца (Величальная)
14. Свадебные песни. Березничек листоватый (Величальная)
15. Свадебные песни. А пташечки по вокошечкам летають
16. Календарные песни. За рекой калинушка рано расцвела (Аринина песня)
Данный альбом является улучшенным переизданием песен, записанных в 1977 году на Ленинградской студии грамзаписи (фирма "Мелодия"). Тогда, пластинки вышли небольшим тиражом, мгновенно разошлись. И теперь у нас появилась возможность услышать эти записи выдающейся фольклорной певицы.
Код:
Exact Audio Copy V0.99 prebeta 4 from 23. January 2008

Отчёт EAC об извлечении, выполненном 24. октября 2009, 11:58

Ольга Сергеева / Музыка Русского Поозерья (студийные записи) CD1

Дисковод: SONY DVD RW DRU-190A Adapter: 0 ID: 0

Режим чтения : Достоверность
Использование точного потока : Да
Отключение кэша аудио : Да
Использование указателей C2 : Нет

Коррекция смещения при чтении : 6
Способность читать области Lead-in и Lead-out : Нет
Заполнение пропущенных сэмплов тишиной : Да
Удаление блоков с тишиной в начале и конце : Нет
При вычислениях CRC использовались нулевые сэмплы : Да
Интерфейс : Установленный внешний ASPI-интерфейс

Выходной формат : Внутренние WAV-операции
Формат сэмплов : 44.100 Гц; 16 бит; стерео

TOC извлечённого CD

Трек | Старт | Длительность | Начальный сектор | Конечный сектор
---------------------------------------------------------------------
1 | 0:00.00 | 2:17.06 | 0 | 10280
2 | 2:17.06 | 2:02.18 | 10281 | 19448
3 | 4:19.24 | 2:22.21 | 19449 | 30119
4 | 6:41.45 | 2:00.56 | 30120 | 39175
5 | 8:42.26 | 1:25.61 | 39176 | 45611
6 | 10:08.12 | 2:26.00 | 45612 | 56561
7 | 12:34.12 | 1:18.02 | 56562 | 62413
8 | 13:52.14 | 1:24.46 | 62414 | 68759
9 | 15:16.60 | 1:29.40 | 68760 | 75474
10 | 16:46.25 | 1:33.19 | 75475 | 82468
11 | 18:19.44 | 1:38.35 | 82469 | 89853
12 | 19:58.04 | 2:07.05 | 89854 | 99383
13 | 22:05.09 | 2:46.61 | 99384 | 111894
14 | 24:51.70 | 2:14.09 | 111895 | 121953
15 | 27:06.04 | 3:14.23 | 121954 | 136526
16 | 30:20.27 | 5:01.22 | 136527 | 159123
17 | 35:21.49 | 6:23.21 | 159124 | 187869

Характеристики диапазона извлечения и сообщения об ошибках

Выбранный диапазон

Имя файла H:\МУЗЫКА ДЛЯ ИНТЕРНЕТА\Ольга Сергеева - Музыка Русского Поозерья (студийные записи)\Ольга Сергеева - Музыка Русского Поозерья (студийные записи) CD1.wav

Пиковый уровень 57.9 %
Качество диапазона 100.0 %
CRC копии 8CF96F4F
Копирование... OK

Ошибок не произошло

Конец отчёта
Код:
Exact Audio Copy V0.99 prebeta 4 from 23. January 2008

Отчёт EAC об извлечении, выполненном 24. октября 2009, 13:15

Ольга Сергеева / Музыка Русского Поозерья (студийные записи) CD2

Дисковод: SONY DVD RW DRU-190A Adapter: 0 ID: 0

Режим чтения : Достоверность
Использование точного потока : Да
Отключение кэша аудио : Да
Использование указателей C2 : Нет

Коррекция смещения при чтении : 6
Способность читать области Lead-in и Lead-out : Нет
Заполнение пропущенных сэмплов тишиной : Да
Удаление блоков с тишиной в начале и конце : Нет
При вычислениях CRC использовались нулевые сэмплы : Да
Интерфейс : Установленный внешний ASPI-интерфейс

Выходной формат : Внутренние WAV-операции
Формат сэмплов : 44.100 Гц; 16 бит; стерео

TOC извлечённого CD

Трек | Старт | Длительность | Начальный сектор | Конечный сектор
---------------------------------------------------------------------
1 | 0:00.00 | 1:18.57 | 0 | 5906
2 | 1:18.57 | 2:47.55 | 5907 | 18486
3 | 4:06.37 | 3:36.72 | 18487 | 34758
4 | 7:43.34 | 0:55.55 | 34759 | 38938
5 | 8:39.14 | 0:46.61 | 38939 | 42449
6 | 9:26.00 | 1:26.14 | 42450 | 48913
7 | 10:52.14 | 2:40.09 | 48914 | 60922
8 | 13:32.23 | 3:52.71 | 60923 | 78393
9 | 17:25.19 | 3:29.68 | 78394 | 94136
10 | 20:55.12 | 4:00.56 | 94137 | 112192
11 | 24:55.68 | 3:30.07 | 112193 | 127949
12 | 28:26.00 | 1:34.01 | 127950 | 135000
13 | 30:00.01 | 1:14.50 | 135001 | 140600
14 | 31:14.51 | 2:48.51 | 140601 | 153251
15 | 34:03.27 | 1:50.54 | 153252 | 161555
16 | 35:54.06 | 6:24.13 | 161556 | 190368

Характеристики диапазона извлечения и сообщения об ошибках

Выбранный диапазон

Имя файла H:\МУЗЫКА ДЛЯ ИНТЕРНЕТА\Ольга Сергеева - Музыка Русского Поозерья (студийные записи)\Ольга Сергеева - Музыка Русского Поозерья (студийные записи) CD2.wav

Пиковый уровень 53.1 %
Качество диапазона 100.0 %
CRC копии FD06D95C
Копирование... OK

Ошибок не произошло

Конец отчёта
Код:
AUDIOCHECKER v2.0 beta (build 457) - by Dester - opdester@freemail.hu
~~~~~~~~~~~~~~~~~~~~~~~~~~~~~~~~~~
-=== НЕ РЕДАКТИРУЙТЕ ЭТОТ ФАЙЛ! ===-

Путь: ...\Ольга Сергеева

1 -=- Ольга Сергеева - Музыка Русского Поозерья (студийные записи) CD1.ape -=- CDDA (100%)
2 -=- Ольга Сергеева - Музыка Русского Поозерья (студийные записи) CD2.ape -=- CDDA (100%)

Сводка 100,00% CDDA

223467476
Время раздачи: C 22:00 до 08:30 MSK 23.02.2014 - Реставрация от: pris_v_v
[NNM-Club.ru]_Ol'ga Sergeeva.torrent
 Торрент: Платиновая раздача  Зарегистрирован
 
Скачать


 Зарегистрирован:   26 Июн 2010 14:31:49
 Размер:   355 MB  (
 Рейтинг:   4 (Голосов: 11)
 Поблагодарили:   43
 Проверка:   Оформление проверено модератором 27 Июн 2010 06:33:49
Как cкачать  ·  Как раздать  ·  Правильно оформить  ·  Поднять ратио!  
Показать сообщения:   
Начать новую тему   Ответить на тему    Торрент-трекер NNM-Club -> Other Styles -> Folk (Lossless) Часовой пояс: GMT + 3
Страница 1 из 1