Классический форум-трекер
canvas not supported
Нас вместе: 4 093 454

Gorillaz - Greatest Hits (2010) [APE|Lossless] <Trip Hop, Emo, Downtempo, Rock>


 
 
RSS
Начать новую тему   Ответить на тему    Торрент-трекер NNM-Club -> Rock, Alternative, Punk, Metal -> Alternative, Punk (Lossless)
Автор Сообщение
svlesin ®
Модератор Документалистики/TV
RG Releasers
Релизер 25000+ Uploader 300+
 
Стаж: 10 лет 2 мес.
Сообщений: 33802
Ratio: 1813,461
Поблагодарили: 3252638
100%
russia.gif
Gorillaz - Greatest Hits (2010)
Год: 2010

Жанр: Trip Hop, Emo, Downtempo, Rock

Кодек: APE

Битрейт: Lossless

Продолжительность: 01:19:47

Тип рипа: image+.cue




Трек лист:

01. Superfast Jellyfish
02. Rockit
03. Rhinestone Eyes
04. Feel Good Inc
05. Clint Eastwood
06. Stylo
07. Dare
08. 5/4
09. On Melancholy Hill
10. Lil' Dub Chefin'
11. People
12. Tomorrow Comes Today
13. Kids With Guns
14. Dirty Harry
15. 19-2000
16. Last Living Souls
17. Rock The House
18. El Manana
19. Re-Hash
20. Every Planet We Reach Is Dead
21. Hong Kong
Код:
CUERipper v2.0.9 Copyright (C) 2008-10 Gregory S. Chudov

EAC extraction logfile from 06. June 2010, 21:16

Gorillaz / Greatest Hits

Used drive  : PIONEER DVD-RW  DVR-112D   Adapter: 1  ID: 0

Read mode               : Secure
Utilize accurate stream : Yes
Defeat audio cache      : Yes
Make use of C2 pointers : No

Read offset correction                      : 48
Overread into Lead-In and Lead-Out          : No
Fill up missing offset samples with silence : Yes
Delete leading and trailing silent blocks   : No
Null samples used in CRC calculations       : Yes
Used interface                              : Native Win32 interface for Win NT & 2000

Used output format : Internal WAV Routines
Sample format      : 44.100 Hz; 16 Bit; Stereo

TOC of the extracted CD

     Track |   Start  |  Length  | Start sector | End sector
    ---------------------------------------------------------
        1  |  0:00.00 |  2:56.61 |         0    |    13260
        2  |  2:56.61 |  3:36.34 |     13261    |    29494
        3  |  6:33.20 |  3:22.13 |     29495    |    44657
        4  |  9:55.33 |  3:36.56 |     44658    |    60913
        5  | 13:32.14 |  5:41.51 |     60914    |    86539
        6  | 19:13.65 |  4:32.39 |     86540    |   106978
        7  | 23:46.29 |  3:34.37 |    106979    |   123065
        8  | 27:20.66 |  2:42.04 |    123066    |   135219
        9  | 30:02.70 |  3:53.07 |    135220    |   152701
       10  | 33:56.02 |  3:03.21 |    152702    |   166447
       11  | 36:59.23 |  3:29.67 |    166448    |   182189
       12  | 40:29.15 |  3:14.08 |    182190    |   196747
       13  | 43:43.23 |  3:47.57 |    196748    |   213829
       14  | 47:31.05 |  2:46.32 |    213830    |   226311
       15  | 50:17.37 |  3:29.03 |    226312    |   241989
       16  | 53:46.40 |  3:12.24 |    241990    |   256413
       17  | 56:58.64 |  3:05.27 |    256414    |   270315
       18  | 60:04.16 |  3:52.01 |    270316    |   287716
       19  | 63:56.17 |  3:40.29 |    287717    |   304245
       20  | 67:36.46 |  4:55.19 |    304246    |   326389
       21  | 72:31.65 |  7:14.51 |    326390    |   358990

Range status and errors

Selected range

     Filename C:\Gorillaz\2010 - Greatest Hits\Gorillaz - Greatest Hits .wav

     Peak level 99.4 %
     Range quality 100.0 %
     Test CRC CABD8ECF
     Copy CRC CABD8ECF
     Copy OK

No errors occurred

AccurateRip summary

Track  1  not present in database
Track  2  not present in database
Track  3  not present in database
Track  4  not present in database
Track  5  not present in database
Track  6  not present in database
Track  7  not present in database
Track  8  not present in database
Track  9  not present in database
Track 10  not present in database
Track 11  not present in database
Track 12  not present in database
Track 13  not present in database
Track 14  not present in database
Track 15  not present in database
Track 16  not present in database
Track 17  not present in database
Track 18  not present in database
Track 19  not present in database
Track 20  not present in database
Track 21  not present in database

None of the tracks are present in the AccurateRip database

End of status report
Код:
AUDIOCHECKER v2.0 beta (build 457) - by Dester - opdester@freemail.hu
~~~~~~~~~~~~~~~~~~~~~~~~~~~~~~~~~~
-=== DO NOT EDIT THIS FILE! ===-

Path: ...\Gorillaz - Greatest Hits (2010)

1 -=- Gorillaz - Greatest Hits .ape -=- CDDA (99%)

122437764
Время раздачи: 24/7. До первых 5 скачавших.


Поглощение/вытеснение
Только с согласия релизера

DesideriuM

Реставрация от: Алинна11
[NNM-Club.ru]_Gorillaz - Greatest Hits (2010).torrent
 Торрент: Платиновая раздача  Зарегистрирован
 
Скачать


 Зарегистрирован:   21 Авг 2010 19:42:09
 Размер:   475 MB  (
 Рейтинг:   4,7 (Голосов: 27)
 Поблагодарили:   84
 Проверка:   Оформление проверено модератором 23 Авг 2010 23:22:58
Как cкачать  ·  Как раздать  ·  Правильно оформить  ·  Поднять ратио!  

_________________
Уважаемые пользователи Клуба! От меня релизов больше не будет. Может быть, буду поддерживать «Обновляемые раздачи». Спасибо всем, кто благодарил меня и говорил/нажимал «Спасибо»!
LeNKI
Стаж: 12 лет 3 мес.
Сообщений: 121
Ratio: 3,7
Поблагодарили: 252
20%
russia.gif
уже забираю, спасибо)

_________________
Rraziel
Стаж: 9 лет 10 мес.
Сообщений: 1
Ratio: 39,291
28.57%
ussr.gif
Спасибо за релиз
PINY
Стаж: 10 лет 3 мес.
Сообщений: 83
Ratio: 3,567
Поблагодарили: 391
12.37%
Откуда: Russia
ussr.gif
del

надобность отпала

_________________
Если я на трекере, это не значит, что я у компьютера.
xNameless​Dreamer​
Стаж: 9 лет 7 мес.
Сообщений: 112
Ratio: 2,718
100%
Откуда: BlackSky
ukraine.gif
То что нужно))
Показать сообщения:   
Начать новую тему   Ответить на тему    Торрент-трекер NNM-Club -> Rock, Alternative, Punk, Metal -> Alternative, Punk (Lossless) Часовой пояс: GMT + 3
Страница 1 из 1