Классический форум-трекер
canvas not supported
Нас вместе: 4 233 581

Susana - Closer (2010) [FLAC|Lossless]<Trance>


 
 
RSS
Начать новую тему   Ответить на тему    Торрент-трекер NNM-Club -> Архив торрентов -> Архив Музыки
Автор Сообщение
WindSir ®
Стаж: 14 лет 4 мес.
Сообщений: 32
Поблагодарили: 469
100%
russia.gif
Susana - Closer (2010)
Год: 2010
Лейбл: Armada Music
Каталог #: ARMA237
Жанр: Trance
Продолжительность: 00:58:54
Кодек: FLAC
Тип рипа: tracks+ .cue
Битрейт: Lossless

Треклист:
01. Closer (feat Omnia & The Blizzard)
02. Give Me Faith (feat Mike Shiver)
03. Nothing At All (feat Rex Mundi)
04. Frozen (feat Josh Gabriel)
05. Sleepless Ocean (feat Dark Matters)
06. Wired (feat Dash Berlin)
07. The Other Side (feat Tenishia)
08. Sunrise (feat Stoneface & Terminal)
09. Unwind Me (eat Dark Matters)
10. Never Mine (feat Jorn Van Deynhoven)
11. If I Could (feat Bart Claesse)
12. Running On Your Love (feat A Force)
13. Fall In Deep (feat Julian Vincent)
14. Connection (feat Espen Gulbrandsen)
15. If You Should Go (feat Armin Van Buuren)
Код: выделить все

Exact Audio Copy V0.99 prebeta 5 from 4. May 2009

EAC extraction logfile from 26. August 2010, 23:18

Susana / Closer

Used drive : Optiarc DVD+-RW AD-7580S Adapter: 0 ID: 1

Read mode : Secure
Utilize accurate stream : Yes
Defeat audio cache : Yes
Make use of C2 pointers : No

Read offset correction : 6
Overread into Lead-In and Lead-Out : No
Fill up missing offset samples with silence : Yes
Delete leading and trailing silent blocks : No
Null samples used in CRC calculations : Yes
Used interface : Native Win32 interface for Win NT & 2000
Gap handling : Appended to previous track

Used output format : User Defined Encoder
Selected bitrate : 768 kBit/s
Quality : High
Add ID3 tag : No
Command line compressor : C:\Program Files\Exact Audio Copy\Flac\flac.exe
Additional command line options : -V -8 -T "artist=%a" -T "title=%t" -T "album=%g" -T "date=%y" -T "tracknumber=%n" -T "genre=%m" %s

TOC of the extracted CD

Track | Start | Length | Start sector | End sector
---------------------------------------------------------
1 | 0:00.00 | 4:06.27 | 0 | 18476
2 | 4:06.27 | 3:36.03 | 18477 | 34679
3 | 7:42.30 | 3:14.30 | 34680 | 49259
4 | 10:56.60 | 3:36.45 | 49260 | 65504
5 | 14:33.30 | 4:17.05 | 65505 | 84784
6 | 18:50.35 | 3:21.17 | 84785 | 99876
7 | 22:11.52 | 3:32.09 | 99877 | 115785
8 | 25:43.61 | 4:00.44 | 115786 | 133829
9 | 29:44.30 | 5:28.24 | 133830 | 158453
10 | 35:12.54 | 2:59.61 | 158454 | 171939
11 | 38:12.40 | 3:30.66 | 171940 | 187755
12 | 41:43.31 | 3:49.10 | 187756 | 204940
13 | 45:32.41 | 4:12.16 | 204941 | 223856
14 | 49:44.57 | 5:40.46 | 223857 | 249402
15 | 55:25.28 | 3:28.45 | 249403 | 265047

Track 1

Filename D:\01. Susana - Closer.wav

Pre-gap length 0:00:02.00

Peak level 96.6 %
Track quality 99.9 %
Test CRC D7C02EFB
Copy CRC D7C02EFB
Track not present in AccurateRip database
Copy OK

Track 2

Filename D:\02. Susana - Give Me Faith.wav

Pre-gap length 0:00:02.00

Peak level 96.6 %
Track quality 100.0 %
Test CRC C436638A
Copy CRC C436638A
Track not present in AccurateRip database
Copy OK

Track 3

Filename D:\03. Susana - Nothing At All.wav

Pre-gap length 0:00:02.00

Peak level 96.4 %
Track quality 100.0 %
Test CRC 69C3E4C5
Copy CRC 69C3E4C5
Track not present in AccurateRip database
Copy OK

Track 4

Filename D:\04. Susana - Frozen.wav

Pre-gap length 0:00:02.00

Peak level 96.6 %
Track quality 100.0 %
Test CRC A79C3A15
Copy CRC A79C3A15
Track not present in AccurateRip database
Copy OK

Track 5

Filename D:\05. Susana - Sleepless Ocean.wav

Pre-gap length 0:00:02.00

Peak level 91.7 %
Track quality 100.0 %
Test CRC 8E83B54F
Copy CRC 8E83B54F
Track not present in AccurateRip database
Copy OK

Track 6

Filename D:\06. Susana - Wired.wav

Pre-gap length 0:00:02.00

Peak level 96.6 %
Track quality 99.9 %
Test CRC A139D12F
Copy CRC A139D12F
Track not present in AccurateRip database
Copy OK

Track 7

Filename D:\07. Susana - The Other Side.wav

Pre-gap length 0:00:02.00

Peak level 96.5 %
Track quality 100.0 %
Test CRC 880461E1
Copy CRC 880461E1
Track not present in AccurateRip database
Copy OK

Track 8

Filename D:\08. Susana - Sunrise.wav

Pre-gap length 0:00:02.00

Peak level 94.6 %
Track quality 100.0 %
Test CRC 0411B6E7
Copy CRC 0411B6E7
Track not present in AccurateRip database
Copy OK

Track 9

Filename D:\09. Susana - Unwind Me.wav

Pre-gap length 0:00:02.00

Peak level 96.6 %
Track quality 100.0 %
Test CRC BD850CC0
Copy CRC BD850CC0
Track not present in AccurateRip database
Copy OK

Track 10

Filename D:\10. Susana - Never Mine.wav

Pre-gap length 0:00:02.00

Peak level 96.6 %
Track quality 100.0 %
Test CRC CA8CEE9D
Copy CRC CA8CEE9D
Track not present in AccurateRip database
Copy OK

Track 11

Filename D:\11. Susana - If I Could.wav

Pre-gap length 0:00:02.00

Peak level 96.6 %
Track quality 100.0 %
Test CRC E2FFABFF
Copy CRC E2FFABFF
Track not present in AccurateRip database
Copy OK

Track 12

Filename D:\12. Susana - Running On Your Love.wav

Pre-gap length 0:00:02.00

Peak level 96.6 %
Track quality 99.9 %
Test CRC FB834899
Copy CRC FB834899
Track not present in AccurateRip database
Copy OK

Track 13

Filename D:\13. Susana - Fall In Deep.wav

Pre-gap length 0:00:02.00

Peak level 96.6 %
Track quality 100.0 %
Test CRC B8153B7C
Copy CRC B8153B7C
Track not present in AccurateRip database
Copy OK

Track 14

Filename D:\14. Susana - Connection.wav

Pre-gap length 0:00:02.00

Peak level 96.6 %
Track quality 100.0 %
Test CRC 11A9EB81
Copy CRC 11A9EB81
Track not present in AccurateRip database
Copy OK

Track 15

Filename D:\15. Susana - If You Should Go.wav

Pre-gap length 0:00:02.00

Peak level 96.6 %
Track quality 100.0 %
Test CRC 0ED1A024
Copy CRC 0ED1A024
Track not present in AccurateRip database
Copy OK

None of the tracks are present in the AccurateRip database

No errors occurred

End of status report
Код: выделить все

AUDIOCHECKER v2.0 beta (build 457) - by Dester - opdester@freemail.hu
~~~~~~~~~~~~~~~~~~~~~~~~~~~~~~~~~~
-=== DO NOT EDIT THIS FILE! ===-

Path: ...\Susana - Closer (2010)

01 -=- 01. Susana - Closer.flac -=- CDDA (100%)
02 -=- 02. Susana - Give Me Faith.flac -=- CDDA (100%)
03 -=- 03. Susana - Nothing At All.flac -=- MPEG (100%)
04 -=- 04. Susana - Frozen.flac -=- CDDA (100%)
05 -=- 05. Susana - Sleepless Ocean.flac -=- CDDA (100%)
06 -=- 06. Susana - Wired.flac -=- CDDA (100%)
07 -=- 07. Susana - The Other Side.flac -=- MPEG (95%)
08 -=- 08. Susana - Sunrise.flac -=- CDDA (100%)
09 -=- 09. Susana - Unwind Me.flac -=- CDDA (100%)
10 -=- 10. Susana - Never Mine.flac -=- MPEG (95%)
11 -=- 11. Susana - If I Could.flac -=- CDDA (100%)
12 -=- 12. Susana - Running On Your Love.flac -=- MPEG (97%)
13 -=- 13. Susana - Fall In Deep.flac -=- CDDA (100%)
14 -=- 14. Susana - Connection.flac -=- CDDA (100%)
15 -=- 15. Susana - If You Should Go.flac -=- CDDA (100%)

Summary 74,20% CDDA

126117316
Время раздачи: 24/7 (круглосуточно)


Поглощение/вытеснение
Только с согласия релизера

DesideriuM

Реставрация от: sseless
[NNM-Club.ru]_Susana - Closer (2010).torrent
 Торрент: Платиновая раздача  Зарегистрирован
 
Скачать


 Зарегистрирован:   30 Авг 2010 02:46:16
 Размер:   497 MB  (
 Рейтинг:   4.2 (Голосов: 11)
 Поблагодарили:   35
 Проверка:   Оформление проверено модератором 30 Авг 2010 03:46:50
Как cкачать  ·  Как раздать  ·  Правильно оформить  ·  Поднять ратио!  
Топик был перенесен из форума Trance (Lossless) в форум Архив Музыки

Причина переноса: Длительное отсутствие сида на протяжении более 6 месяцев.

Исправил релиз - напиши ЛС kudzin, дав ссылку на релиз.
Если нет ответа 24 часа - нажми на кнопку "Обратить внимание модераторов".
Показать сообщения:   
Начать новую тему   Ответить на тему    Торрент-трекер NNM-Club -> Архив торрентов -> Архив Музыки Часовой пояс: GMT + 3
Страница 1 из 1