Классический форум-трекер
canvas not supported
Нас вместе: 4 233 334

Бит- квартет "Секрет" - Снова вместе, 25 лет спустя! (Телеверсия концерта) (2007) SATRip


 
 
RSS
Начать новую тему   Ответить на тему    Торрент-трекер NNM-Club -> Театр и Музыкальное видео -> Концерты (SD)
Автор Сообщение
bacchus ®
Стаж: 14 лет 8 мес.
Сообщений: 1622
Ratio: 87.045
Поблагодарили: 187406
100%
Откуда: Винница
ukraine.gif
Бит- квартет "Секрет" - Снова вместе, 25 лет спустя! (Телеверсия концерта) (2007) SATRip

Год выхода: 2007
Выпущено: Россия
Жанр: Концерт, Rock
Продолжительность: 00:39:45
Видео: XviD, 1783 kbps, 704x528
Аудио: MP3 2.0, 320 kbps
Треклист:
01. Домой
02. Ничего не исчезает
03. Привет
04. Твой папа был прав
05. Блюз бродячих собак
06. Беспечный ездок
07. Ленинградское время
08. Я люблю буги-вуги
09. Она не понимает
10. Твист
11. Тысяча пластинок
12. Мажорный рок-н-ролл
13. Не говори мне прощай
30 октября в БКЗ " Октябрьский" состоялось уникальное долгожданное событие для любителей подлинного рок-н-ролла. На сцену впервые за много лет в своем "золотом" оригинальном составе побаловать нас своей "глянцевой" музыкой вышли ставшие давно легендарными Максим Леонидов, Николай Фоменко, Андрей Заблудовский и Алексей Мурашев, для того, чтобы исполнить свои лучшие хиты и отметить 25-летие легендарного бит- квартета "Секрет". Телеверсия концерта. Показана 03 января 2010 года.
Состав:
Максим Леонидов
Николай Фоменко
Андрей Заблудовский
Алексей Мурашов
Код: выделить все

       Полное имя                               : K:\UpRG-Концерты\Sekret.Snova.vmeste.2007.avi
Формат                                   : AVI
Формат/Информация                        : Audio Video Interleave
Размер файла                             : 600 Мбайт
Продолжительность                        : 39 м.
Общий поток                              : 2110 Кбит/сек
Программа кодирования                    : VirtualDubMod 1.5.4.1 (build 2178/release)
Библиотека кодирования                   : VirtualDubMod build 2178/release

Видео
Идентификатор                            : 0
Формат                                   : MPEG-4 Visual
Профиль формата                          : Advanced Simple@L5
Параметр BVOP формата                    : 1
Параметр QPel формата                    : Нет
Параметр GMC формата                     : Без точки перехода
Параметр матрицы формата                 : Выборочная
Идентификатор кодека                     : XVID
Идентификатор кодека/Подсказка           : XviD
Продолжительность                        : 39 м.
Битрейт                                  : 1783 Кбит/сек
Ширина                                   : 704 пикселя
Высота                                   : 528 пикселей
Соотношение сторон                       : 4:3
Частота кадров                           : 25,000 кадров/сек
Цветовое пространство                    : YUV
Субдискретизация насыщенности            : 4:2:0
Битовая глубина                          : 8 бит
Тип развёртки                            : Прогрессивная
Метод сжатия                             : С потерями
Бит/(Пиксели*Кадры)                      : 0.192
Размер потока                            : 507 Мбайт (84%)
Библиотека кодирования                   : XviD 1.2.1 (UTC 2008-12-04)

Аудио
Идентификатор                            : 1
Формат                                   : MPEG Audio
Версия формата                           : Version 1
Профиль формата                          : Layer 3
Режим                                    : Joint stereo
Расширение режима                        : MS Stereo
Идентификатор кодека                     : 55
Идентификатор кодека/Подсказка           : MP3
Продолжительность                        : 39 м.
Вид битрейта                             : Постоянный
Битрейт                                  : 320 Кбит/сек
Каналы                                   : 2 канала
Частота                                  : 48,0 КГц
Метод сжатия                             : С потерями
Размер потока                            : 91,0 Мбайт (15%)
Выравнивание                             : Соединение по промежуткам
Продолжительность промежутка             : 80  мс. (2,00 видеокадра)
Время предзагрузки промежутка            : 504  мс.
Библиотека кодирования                   : LAME3.98r         
Скриншоты:





Реставрация sklad600
[NNM-Club.ru]_Sekret.Snova.vmeste.2007.avi.torrent
 Торрент: Платиновая раздача  Зарегистрирован
 
Скачать


Примагнититься
 Зарегистрирован:   12 Май 2020 17:15:32
 Размер:   600 MB  (
 Рейтинг:   4.8 (Голосов: 21)
 Поблагодарили:   99
 Проверка:   Оформление проверено модератором 12 Май 2020 17:17:00
Как cкачать  ·  Как раздать  ·  Правильно оформить  ·  Поднять ратио!  
Dan8322
Стаж: 12 лет 6 мес.
Сообщений: 2
Ratio: 19.992
Поблагодарили: 2
100%
ussr.gif
большущее спасибо
Показать сообщения:   
Начать новую тему   Ответить на тему    Торрент-трекер NNM-Club -> Театр и Музыкальное видео -> Концерты (SD) Часовой пояс: GMT + 3
Страница 1 из 1