Классический форум-трекер
canvas not supported
Нас вместе: 4 103 216

Сурганова и Оркестр - Кругосветка (2006) DVDRip


 
 
RSS
Начать новую тему   Ответить на тему    Торрент-трекер NNM-Club -> Театр и Музыкальное видео -> Концерты
Автор Сообщение
sid1333 ®
Стаж: 13 лет 5 мес.
Сообщений: 30
Ratio: 4,368
Поблагодарили: 950
25.45%
russia.gif
Сурганова и Оркестр - Кругосветка (2006) DVDRip
Год выпуска: 2006
Жанр: Концерт
Описание:
"КругоСветка" представляет живую запись концерта на DVD. На российском рынке пока нет аналогов, составляющих конкуренцию DVD "Кругосветка". Это целое шоу, записанное на 6 камер, абсолютно чистый и профессиональный звук. Впрочем, посмотрев и послушав, Вы сами в этом убедитесь, у Вас останется незабываемое ощущение того, что Вы побывали в концертном зале и получили огромнейший энергетический заряд от лучшего российского коллектива Сурганова и "Оркестр".
Треклист:
01 Музыка
02 Устроенность
03 Лучший жребий
04 Среди огней
05 Милая девочка
06 Обещанный снег
07 Мой взгляд
08 Ты мое дыхание
09 Не тобой болеет сердце
10 Неужели не я
11 Предчувствие смерти
12 Так начинался день
13 Молитва мольберту
14 Дождь
15 Я знаю женщину молчание
16 Я теряю тебя
17 Корабли
18 Энергетический вампир
19 Ворон
20 Весна
21 Горе по небу
22 Была мечта
23 Абсолютный сталевар
24 Февральский ветер
25 Ты
26 Птицы
27 Мураками
28 Апрельская
Продолжительность: 02:06:02

Рип с подарочного DVD9

В записи учавствовали:
Музыка: С. Сурганова.
Аранжировка: С. Сурганова и "Оркестр".
Стихи: С. Сурганова (кроме: 2 - М. Бернандский, 3 - Беранже, 5 - ст. и муз. И. Азбиль, 6 - Т. Хмельник, 10 - И. Бродский, 14 - Ф.Г. Лоркн, 15 - Н. Гумилев, 16 - К. Левина, 17 - ст. и муз. Р. Луценко, 22 - В. Смирнов).

Видео: XviD, 1852 kbps, 696x528
Аудио: MP3 2.0, 256 kbps
Код:

         Полное имя                               : K:\UpRG-Концерты\Кругосветка(Live) - DVDRip Rus.avi
Формат                                   : AVI
Формат/Информация                        : Audio Video Interleave
Размер файла                             : 1,87 Гбайт
Продолжительность                        : 2 ч. 6 м.
Режим общего битрейта                    : Переменный
Общий поток                              : 2121 Кбит/сек
Программа кодирования                    : VirtualDubMod 1.5.10.2 (build 2540/release)
Библиотека кодирования                   : VirtualDubMod build 2540/release

Видео
Идентификатор                            : 0
Формат                                   : MPEG-4 Visual
Профиль формата                          : Advanced Simple@L5
Параметр BVOP формата                    : 2
Параметр QPel формата                    : Нет
Параметр GMC формата                     : Без точки перехода
Параметр матрицы формата                 : Default (H.263)
Режим смешивания                         : Сжатый битовый поток
Идентификатор кодека                     : XVID
Идентификатор кодека/Подсказка           : XviD
Продолжительность                        : 2 ч. 6 м.
Битрейт                                  : 1852 Кбит/сек
Ширина                                   : 696 пикселей
Высота                                   : 528 пикселей
Соотношение сторон                       : 16:9
Частота кадров                           : 25,000 кадров/сек
Цветовое пространство                    : YUV
Субдискретизация насыщенности            : 4:2:0
Битовая глубина                          : 8 бит
Тип развёртки                            : Прогрессивная
Метод сжатия                             : С потерями
Бит/(Пиксели*Кадры)                      : 0.202
Размер потока                            : 1,63 Гбайт (87%)
Библиотека кодирования                   : XviD 1.1.2 (UTC 2006-11-01)

Аудио
Идентификатор                            : 1
Формат                                   : MPEG Audio
Версия формата                           : Version 1
Профиль формата                          : Layer 3
Режим                                    : Joint stereo
Расширение режима                        : MS Stereo
Идентификатор кодека                     : 55
Идентификатор кодека/Подсказка           : MP3
Продолжительность                        : 2 ч. 6 м.
Вид битрейта                             : Переменный
Битрейт                                  : 256 Кбит/сек
Каналы                                   : 2 канала
Частота                                  : 48,0 КГц
Метод сжатия                             : С потерями
Размер потока                            : 231 Мбайт (12%)
Выравнивание                             : Соединение по промежуткам
Продолжительность промежутка             : 24  мс. (0,60 видеокадр)
Время предзагрузки промежутка            : 324  мс.
Библиотека кодирования                   : LAME3.97         
Внимание!!! Смотреть рекомендуется с включённым деинтерлейсингом
Скриншоты:



PS: Прошу прощения за большой размер :( пытался сохранить битрейт и за качество аудио: На ДВД была записана только двухканальная дорожка
Реставрация sklad600
Krugosvetka - DVDRip Rus.avi.torrent
 Торрент: Платиновая раздача  Зарегистрирован
 
Скачать


 Зарегистрирован:   07 Июл 2007 22:42:50
 Размер:   1,87 GB  (
 Рейтинг:   4,7 (Голосов: 44)
 Поблагодарили:   140
 Проверка:   Оформление проверено модератором 08 Июл 2007 09:32:03
Как cкачать  ·  Как раздать  ·  Правильно оформить  ·  Поднять ратио!  
Metr_72
Релизер-меломан
Стаж: 12 лет 11 мес.
Сообщений: 2434
Ratio: 13,061
Поблагодарили: 26907
100%
Откуда: Rivne Сельская местность
ukraine.gif
Раздающему спасибо огромное!!! Будем качать.
PS Скачал, посмотрел. Скажу только "СУПЕР, качать всем поклонникам настоящей музыки"
PPS Решил выложить аудио версию этого супер концерта в формате МР3 http://nnmclub.to/forum/viewtopic.php?t=53991
Ribald
Стаж: 9 лет 10 мес.
Сообщений: 9
Ratio: 1,369
100%
russia.gif
Здоровски,спасибо!
Показать сообщения:   
Начать новую тему   Ответить на тему    Торрент-трекер NNM-Club -> Театр и Музыкальное видео -> Концерты Часовой пояс: GMT + 3
Страница 1 из 1