Классический форум-трекер
canvas not supported
Нас вместе: 4 233 640

5 неизвестных / Unknown (2006) BDRip


 
 
RSS
Начать новую тему   Ответить на тему    Торрент-трекер NNM-Club -> Зарубежное кино -> Зарубежные Фильмы (SD)
Автор Сообщение
Dobrenko ®
Стаж: 15 лет 8 мес.
Сообщений: 6502
Ratio: 28.506
Поблагодарили: 755344
100%
Откуда: Одесса-Москва
5 неизвестных / Unknown
«Похититель... Жертва... Убийца... Приманка? Кто ты?»

Год выпуска: 2006
Жанр: Триллер

Описание:
Пятеро мужчин приходят в себя на заброшенном, наглухо закрытом складе — один смертельно ранен и прикован наручниками к трубе, у второго сломан нос, третий связан, двое оставшихся — целы, в синяках и ссадинах. У каждого амнезия.На столе — позавчерашняя газета со статьей на первой полосе о похищении двух богатых бизнесменов. Тем временем, на свободе полиция и жена одного из похищенных готовят выкуп, пытаясь заманить в ловушку главаря банды похитителей.Похоже, на складе оказались заперты и преступники, и жертвы. Но кто из них кто? Неужели похитители связаны и прикованы, а те, кто пострадал меньше всего — жертвы, победившие и наказавшие злодеев? Или же разгадка находится за пределами заброшенного склада?
Режиссер: Саймон Брэнд /Simon Brand/
Актеры: Джеймс Кэвизел /James Caviezel/, Грег Киннер /Greg Kinnear/, Джо Пантолиано /Joe Pantoliano/, Барри Пеппер /Barry Pepper/, Джереми Систо /Jeremy Sisto/,Бриджет Мойнэхэн /Bridget Moynahan/
Качество видео: BDRip
Продолжительность: 01:25:00
Субтитры: Русские, Английские (отдельно)
Перевод: Дублированный / Оригинальный (английский)



Видео: XviD build 50,720x304 (2.37:1),23.976 fps,2404 kbps avg,0.44 bit/pix
Аудио1: 48 kHz, AC3 Dolby Digital, 3/2 (L,C,R,l,r) + LFE ch, 448.00 kbps | DUB
Аудио2: 48 kHz, AC3 Dolby Digital, 3/2 (L,C,R,l,r) + LFE ch, 448.00 kbps | Orig
General
Complete name : E:\5_neizvestnyuh\5_neizvestnyuh_BDRip.avi
Format : AVI
Format/Info : Audio Video Interleave
File size : 1.97 GiB
Duration : 1h 25mn
Overall bit rate : 3 314 Kbps
Writing application : VirtualDubMod 1.6.0.0 SURROUND (build 2560/release)
Writing library : VirtualDubMod build 2560/release

Video
ID : 0
Format : MPEG-4 Visual
Format profile : Advanced Simple@L5
Format settings, BVOP : 1
Format settings, QPel : No
Format settings, GMC : No warppoints
Format settings, Matrix : Custom
Codec ID : XVID
Codec ID/Hint : XviD
Duration : 1h 25mn
Bit rate : 2 404 Kbps
Width : 720 pixels
Height : 304 pixels
Display aspect ratio : 2.35:1
Frame rate : 23.976 fps
Color space : YUV
Chroma subsampling : 4:2:0
Bit depth : 8 bits
Scan type : Progressive
Compression mode : Lossy
Bits/(Pixel*Frame) : 0.458
Stream size : 1.43 GiB (73%)
Writing library : XviD 1.2.1 (UTC 2008-12-04)

Audio #1
ID : 1
Format : AC-3
Format/Info : Audio Coding 3
Mode extension : CM (complete main)
Codec ID : 2000
Duration : 1h 25mn
Bit rate mode : Constant
Bit rate : 448 Kbps
Channel(s) : 6 channels
Channel positions : Front: L C R, Side: L R, LFE
Sampling rate : 48.0 KHz
Bit depth : 16 bits
Compression mode : Lossy
Stream size : 273 MiB (14%)
Alignment : Split accross interleaves
Interleave, duration : 42 ms (1.00 video frame)
Interleave, preload duration : 500 ms

Audio #2
ID : 2
Format : AC-3
Format/Info : Audio Coding 3
Mode extension : CM (complete main)
Codec ID : 2000
Duration : 1h 25mn
Bit rate mode : Constant
Bit rate : 448 Kbps
Channel(s) : 6 channels
Channel positions : Front: L C R, Side: L R, LFE
Sampling rate : 48.0 KHz
Bit depth : 16 bits
Compression mode : Lossy
Stream size : 273 MiB (14%)
Alignment : Aligned on interleaves
Interleave, duration : 42 ms (1.00 video frame)
Interleave, preload duration : 512 ms


Время раздачи: 24/7 - круглосуточно
[NNM-Club.ru]_5_neizvestnyuh.torrent
 Торрент: Платиновая раздача  Зарегистрирован
 
Скачать


Примагнититься
 Зарегистрирован:   03 Май 2019 19:13:36
 Размер:   1.97 GB  (
 Рейтинг:   4.6 (Голосов: 65)
 Поблагодарили:   324
 Проверка:   Оформление проверено модератором 03 Май 2019 19:50:59
Как cкачать  ·  Как раздать  ·  Правильно оформить  ·  Поднять ратио!  
anna_shik
Стаж: 14 лет 2 мес.
Сообщений: 5
Ratio: 0.665
26.63%
Фильм норм. Можно посмотреть для разнообразия.
romanovl
Стаж: 14 лет 7 мес.
Сообщений: 16
Ratio: 7.999
10.53%
Хороший фильм!
мин-воды
 
Стаж: 13 лет 3 мес.
Сообщений: 2457
Ratio: 29.287
Поблагодарили: 63175
100%
Откуда: Минеральные Воды
neth_antilles.gif
5 неизвестных / Unknown
«Похититель... Жертва... Убийца... Приманка? Кто ты?»

Русское название: 5 неизвестных
Оригинальное название: Unknown
Год выпуска: 2006
Жанр: Триллер
Описание фильма:
Пятеро мужчин приходят в себя на заброшенном, наглухо закрытом складе — один смертельно ранен и прикован наручниками к трубе, у второго сломан нос, третий связан, двое оставшихся — целы, в синяках и ссадинах. У каждого амнезия.На столе — позавчерашняя газета со статьей на первой полосе о похищении двух богатых бизнесменов. Тем временем, на свободе полиция и жена одного из похищенных готовят выкуп, пытаясь заманить в ловушку главаря банды похитителей.Похоже, на складе оказались заперты и преступники, и жертвы. Но кто из них кто? Неужели похитители связаны и прикованы, а те, кто пострадал меньше всего — жертвы, победившие и наказавшие злодеев? Или же разгадка находится за пределами заброшенного склада?
Режиссер: Саймон Брэнд /Simon Brand/
Актеры: Джеймс Кэвизел /James Caviezel/, Грег Киннер /Greg Kinnear/, Джо Пантолиано /Joe Pantoliano/, Барри Пеппер /Barry Pepper/, Джереми Систо /Jeremy Sisto/,Бриджет Мойнэхэн /Bridget Moynahan/
Качество видео: BDRip
Продолжительность: 01:25:00
Субтитры: Русские, Английские (отдельно)
Перевод: Дублированный / Оригинальный (английский)



Видео: XviD build 50,720x304 (2.37:1),23.976 fps,2404 kbps avg,0.44 bit/pix
Аудио1: 48 kHz, AC3 Dolby Digital, 3/2 (L,C,R,l,r) + LFE ch, 448.00 kbps | DUB
Аудио2: 48 kHz, AC3 Dolby Digital, 3/2 (L,C,R,l,r) + LFE ch, 448.00 kbps | Orig
General
Complete name : E:\5_neizvestnyuh\5_neizvestnyuh_BDRip.avi
Format : AVI
Format/Info : Audio Video Interleave
File size : 1.97 GiB
Duration : 1h 25mn
Overall bit rate : 3 314 Kbps
Writing application : VirtualDubMod 1.6.0.0 SURROUND (build 2560/release)
Writing library : VirtualDubMod build 2560/release

Video
ID : 0
Format : MPEG-4 Visual
Format profile : Advanced Simple@L5
Format settings, BVOP : 1
Format settings, QPel : No
Format settings, GMC : No warppoints
Format settings, Matrix : Custom
Codec ID : XVID
Codec ID/Hint : XviD
Duration : 1h 25mn
Bit rate : 2 404 Kbps
Width : 720 pixels
Height : 304 pixels
Display aspect ratio : 2.35:1
Frame rate : 23.976 fps
Color space : YUV
Chroma subsampling : 4:2:0
Bit depth : 8 bits
Scan type : Progressive
Compression mode : Lossy
Bits/(Pixel*Frame) : 0.458
Stream size : 1.43 GiB (73%)
Writing library : XviD 1.2.1 (UTC 2008-12-04)

Audio #1
ID : 1
Format : AC-3
Format/Info : Audio Coding 3
Mode extension : CM (complete main)
Codec ID : 2000
Duration : 1h 25mn
Bit rate mode : Constant
Bit rate : 448 Kbps
Channel(s) : 6 channels
Channel positions : Front: L C R, Side: L R, LFE
Sampling rate : 48.0 KHz
Bit depth : 16 bits
Compression mode : Lossy
Stream size : 273 MiB (14%)
Alignment : Split accross interleaves
Interleave, duration : 42 ms (1.00 video frame)
Interleave, preload duration : 500 ms

Audio #2
ID : 2
Format : AC-3
Format/Info : Audio Coding 3
Mode extension : CM (complete main)
Codec ID : 2000
Duration : 1h 25mn
Bit rate mode : Constant
Bit rate : 448 Kbps
Channel(s) : 6 channels
Channel positions : Front: L C R, Side: L R, LFE
Sampling rate : 48.0 KHz
Bit depth : 16 bits
Compression mode : Lossy
Stream size : 273 MiB (14%)
Alignment : Aligned on interleaves
Interleave, duration : 42 ms (1.00 video frame)
Interleave, preload duration : 512 ms
Сэмпл


Время раздачи: 24/7 - круглосуточно
Реставрация от: Ник участника
Лима
Стаж: 13 лет 2 мес.
Сообщений: 247
Ratio: 41.389
Поблагодарили: 1212
100%
romania.gif
Спасибо, но скорость не помешает!

_________________
Кто сказал, что любовь - это счастливый дар?
any1ne
Стаж: 13 лет 6 мес.
Сообщений: 74
Ratio: 19.135
55.59%
russia.gif
Не скажу, что шедевр. Но один из тех, которые в конце не вызывают разочарований.
Показать сообщения:   
Начать новую тему   Ответить на тему    Торрент-трекер NNM-Club -> Зарубежное кино -> Зарубежные Фильмы (SD) Часовой пояс: GMT + 3
Страница 1 из 1