Классический форум-трекер
canvas not supported
Нас вместе: 4 171 146

Алиса - Сейчас позднее, чем ты думаешь (2003) [ALAC|Tracks]<Roсk>


 
 
RSS
Начать новую тему   Ответить на тему    Торрент-трекер NNM-Club -> Аудио и Видео -> Музыка Lossless (ALAC)
Автор Сообщение
djim83 ®
Покровитель талантов
Стаж: 11 лет 10 мес.
Сообщений: 4198
Ratio: 43.861
Раздал: 2.06 TB
Поблагодарили: 19525
100%
Откуда: во мне позитив? Статус: добряк самоучка
western_samoa.gif
Алиса - Сейчас позднее, чем ты думаешь (2003)
Год: 2003
Лейбл: Мистерия; Продюссерский центр Игоря Матвиенко
Номер по каталогу: МС 050798
Жанр: Roсk
Продолжительность: 00:46:48

Кодек: ALAC
Битрейт: Lossless
Тип раздачи: Tracks
Наличие сканов в содержимом раздачи: Да (полный комплект)

Треклист:
01. Родина (o4:06)
02. Небо славян (o4:36)
03. Непокорные (o3:53)
04. Без креста (o5:45)
05. Всадники (o6:46)
06. Антихрист (o3:29)
07. Инок, воин и шут (o5:14)
08. Званые (o6:12)
09. Душа (o6:47)
Рип сделан с оригинального диска без пережатия с помощью программы iTunes
Код:

-----------------------

DON'T MODIFY THIS FILE

-----------------------

PERFORMER: auCDtect Task Manager, ver. 1.5.1RC3 build 1.5.1.4
Copyright (c) 2008-2010 y-soft. All rights reserved
http://y-soft.org

ANALYZER: auCDtect: CD records authenticity detector, version 0.8.2
Copyright (c) 2004 Oleg Berngardt. All rights reserved.
Copyright (c) 2004 Alexander Djourik. All rights reserved.

FILE: 09 Душа.m4a
  Size: 44549083 Hash: 34CF96023F82A9B113D45149577C436A Accuracy: -m0
  Conclusion: CDDA 100%
  Signature: A14649339E0ED723E8250CF090F64D00A730258C
FILE: 08 Званые.m4a
  Size: 41549109 Hash: 338DE5392DDEFB31756690383499DCF7 Accuracy: -m0
  Conclusion: CDDA 100%
  Signature: 11C358A3CD8C2FDB1D1D2A866CBC633A807C9D2E
FILE: 07 Инок, Воин И Шут.m4a
  Size: 38545798 Hash: D74391C861B78E1AA4278A782B8021DA Accuracy: -m0
  Conclusion: CDDA 100%
  Signature: 10849A5526D2C34894864A258D4AE5D51C8FEB03
FILE: 06 Антихрист.m4a
  Size: 25876622 Hash: 94640E79CFD1E24DCFF67D0F30DAA10C Accuracy: -m0
  Conclusion: CDDA 100%
  Signature: 47F860F3F33648FD73DBB5232E5B114DB8F3EE2F
FILE: 05 Всадники.m4a
  Size: 48691693 Hash: EE6D5A92170DAAB5883D7FD67F8578F3 Accuracy: -m0
  Conclusion: CDDA 100%
  Signature: 14C3F06515DFE32A21DA401D74E3F6DD27F1996B
FILE: 04 Без Креста.m4a
  Size: 39748664 Hash: 3EA6894A6392E23BB1CAA6DFD45129CB Accuracy: -m0
  Conclusion: CDDA 100%
  Signature: ECBF841D18E9B6A3EC79E6177E37A49C83850F70
FILE: 03 Непокорные.m4a
  Size: 28611921 Hash: 9EA70338EBF2D08C23BA48422D420709 Accuracy: -m0
  Conclusion: CDDA 100%
  Signature: 5D3077DABB33A249C4A3A9B79522A024D3C423C9
FILE: 02 Небо Славян.m4a
  Size: 36194073 Hash: 32122145EA3ED2033532747034BDAA41 Accuracy: -m0
  Conclusion: CDDA 99%
  Signature: 987054DEE2C2997476F00ED88543D5ABEFC1F015
FILE: 01 Родина.m4a
  Size: 30015593 Hash: 72B79A7D9AED2016360F9E9775FD447F Accuracy: -m0
  Conclusion: CDDA 100%
  Signature: FBFD58163DD03910C751BA54C53A03571A584532
Код:


Общее
Полное имя                               : C:\Alisa-sejchas pozdnee chem ti dumaesh[nnm-club.ru]\01 Родина.m4a
Формат                                   : MPEG-4
Профиль формата                          : Apple audio with iTunes info
Идентификатор кодека                     : M4A
Размер файла                             : 28,6 Мбайт
Продолжительность                        : 4 м. 6 с.
Режим общего битрейта                    : Переменный
Общий поток                              : 975 Кбит/сек
Альбом                                   : Сейчас Позднее, Чем Ты Думаешь
Часть/Положение                          : 1
Часть/Всего                              : 1
Трек                                     : Родина
Трек/Положение                           : 1
Трек/Всего                               : 9
Исполнитель                              : Алиса
Жанр                                     : Rock
Дата записи                              : 2003
Дата кодирования                         : UTC 2010-11-11 13:47:11
Дата пометки                             : UTC 2010-11-11 13:48:09
Программа кодирования                    : iTunes 10.0.1.22
Encoding Params                          : (Binary)
UFIDhttp://www.cddb.com/id3/taginfo1.htm : 3CD3N46R48830159U1787127FE6C566FC9BDECBA552BB4BA201FP7

Аудио
Идентификатор                            : 1
Формат                                   : ALAC
Идентификатор кодека                     : alac
Идентификатор кодека/Информация          : Apple Lossless Audio Codec
Продолжительность                        : 4 м. 6 с.
Duration_LastFrame                       : -51 мс.
Вид битрейта                             : Переменный
Битрейт                                  : 974 Кбит/сек
Каналы                                   : 2 канала
Частота                                  : 44,1 КГц
Битовая глубина                          : 16 бит
Размер потока                            : 28,6 Мбайт (100%)
Дата кодирования                         : UTC 2010-11-11 13:47:11
Дата пометки                             : UTC 2010-11-11 13:48:09

Общее
Полное имя                               : C:\Alisa-sejchas pozdnee chem ti dumaesh[nnm-club.ru]\02 Небо Славян.m4a
Формат                                   : MPEG-4
Профиль формата                          : Apple audio with iTunes info
Идентификатор кодека                     : M4A
Размер файла                             : 34,5 Мбайт
Продолжительность                        : 4 м. 35 с.
Режим общего битрейта                    : Переменный
Общий поток                              : 1051 Кбит/сек
Альбом                                   : Сейчас Позднее, Чем Ты Думаешь
Часть/Положение                          : 1
Часть/Всего                              : 1
Трек                                     : Небо Славян
Трек/Положение                           : 2
Трек/Всего                               : 9
Исполнитель                              : Алиса
Жанр                                     : Rock
Дата записи                              : 2003
Дата кодирования                         : UTC 2010-11-11 13:48:10
Дата пометки                             : UTC 2010-11-11 13:49:08
Программа кодирования                    : iTunes 10.0.1.22
Encoding Params                          : (Binary)
UFIDhttp://www.cddb.com/id3/taginfo1.htm : 3CD3N49R48830160U11854B7D507BEDFAF66F5764580E244DC97P6

Аудио
Идентификатор                            : 1
Формат                                   : ALAC
Идентификатор кодека                     : alac
Идентификатор кодека/Информация          : Apple Lossless Audio Codec
Продолжительность                        : 4 м. 35 с.
Duration_LastFrame                       : -15 мс.
Вид битрейта                             : Переменный
Битрейт                                  : 1051 Кбит/сек
Каналы                                   : 2 канала
Частота                                  : 44,1 КГц
Битовая глубина                          : 16 бит
Размер потока                            : 34,5 Мбайт (100%)
Дата кодирования                         : UTC 2010-11-11 13:48:10
Дата пометки                             : UTC 2010-11-11 13:49:08

Общее
Полное имя                               : C:\Alisa-sejchas pozdnee chem ti dumaesh[nnm-club.ru]\03 Непокорные.m4a
Формат                                   : MPEG-4
Профиль формата                          : Apple audio with iTunes info
Идентификатор кодека                     : M4A
Размер файла                             : 27,3 Мбайт
Продолжительность                        : 3 м. 52 с.
Режим общего битрейта                    : Переменный
Общий поток                              : 986 Кбит/сек
Альбом                                   : Сейчас Позднее, Чем Ты Думаешь
Часть/Положение                          : 1
Часть/Всего                              : 1
Трек                                     : Непокорные
Трек/Положение                           : 3
Трек/Всего                               : 9
Исполнитель                              : Алиса
Жанр                                     : Rock
Дата записи                              : 2003
Дата кодирования                         : UTC 2010-11-11 13:49:08
Дата пометки                             : UTC 2010-11-11 13:49:53
Программа кодирования                    : iTunes 10.0.1.22
Encoding Params                          : (Binary)
UFIDhttp://www.cddb.com/id3/taginfo1.htm : 3CD3N52R48830161U508D4B3D2B0554191A399ADDB8F6D58DE52P5

Аудио
Идентификатор                            : 1
Формат                                   : ALAC
Идентификатор кодека                     : alac
Идентификатор кодека/Информация          : Apple Lossless Audio Codec
Продолжительность                        : 3 м. 52 с.
Duration_LastFrame                       : -92 мс.
Вид битрейта                             : Переменный
Битрейт                                  : 985 Кбит/сек
Каналы                                   : 2 канала
Частота                                  : 44,1 КГц
Битовая глубина                          : 16 бит
Размер потока                            : 27,3 Мбайт (100%)
Дата кодирования                         : UTC 2010-11-11 13:49:08
Дата пометки                             : UTC 2010-11-11 13:49:53

Общее
Полное имя                               : C:\Alisa-sejchas pozdnee chem ti dumaesh[nnm-club.ru]\04 Без Креста.m4a
Формат                                   : MPEG-4
Профиль формата                          : Apple audio with iTunes info
Идентификатор кодека                     : M4A
Размер файла                             : 37,9 Мбайт
Продолжительность                        : 5 м. 43 с.
Режим общего битрейта                    : Переменный
Общий поток                              : 927 Кбит/сек
Альбом                                   : Сейчас Позднее, Чем Ты Думаешь
Часть/Положение                          : 1
Часть/Всего                              : 1
Трек                                     : Без Креста
Трек/Положение                           : 4
Трек/Всего                               : 9
Исполнитель                              : Алиса
Жанр                                     : Rock
Дата записи                              : 2003
Дата кодирования                         : UTC 2010-11-11 13:49:53
Дата пометки                             : UTC 2010-11-11 13:50:53
Программа кодирования                    : iTunes 10.0.1.22
Encoding Params                          : (Binary)
UFIDhttp://www.cddb.com/id3/taginfo1.htm : 3CD3N56R48830162U3880B0314BF76445651BDC96A7DD4CF34BDP4

Аудио
Идентификатор                            : 1
Формат                                   : ALAC
Идентификатор кодека                     : alac
Идентификатор кодека/Информация          : Apple Lossless Audio Codec
Продолжительность                        : 5 м. 43 с.
Duration_LastFrame                       : -18 мс.
Вид битрейта                             : Переменный
Битрейт                                  : 926 Кбит/сек
Каналы                                   : 2 канала
Частота                                  : 44,1 КГц
Битовая глубина                          : 16 бит
Размер потока                            : 37,9 Мбайт (100%)
Дата кодирования                         : UTC 2010-11-11 13:49:53
Дата пометки                             : UTC 2010-11-11 13:50:53

Общее
Полное имя                               : C:\Alisa-sejchas pozdnee chem ti dumaesh[nnm-club.ru]\05 Всадники.m4a
Формат                                   : MPEG-4
Профиль формата                          : Apple audio with iTunes info
Идентификатор кодека                     : M4A
Размер файла                             : 46,4 Мбайт
Продолжительность                        : 6 м. 45 с.
Режим общего битрейта                    : Переменный
Общий поток                              : 961 Кбит/сек
Альбом                                   : Сейчас Позднее, Чем Ты Думаешь
Часть/Положение                          : 1
Часть/Всего                              : 1
Трек                                     : Всадники
Трек/Положение                           : 5
Трек/Всего                               : 9
Исполнитель                              : Алиса
Жанр                                     : Rock
Дата записи                              : 2003
Дата кодирования                         : UTC 2010-11-11 13:50:53
Дата пометки                             : UTC 2010-11-11 13:51:58
Программа кодирования                    : iTunes 10.0.1.22
Encoding Params                          : (Binary)
UFIDhttp://www.cddb.com/id3/taginfo1.htm : 3CD3N59R48830163U198A8085701CC2D949E255B6B37F036FFBBP4

Аудио
Идентификатор                            : 1
Формат                                   : ALAC
Идентификатор кодека                     : alac
Идентификатор кодека/Информация          : Apple Lossless Audio Codec
Продолжительность                        : 6 м. 45 с.
Duration_LastFrame                       : -47 мс.
Вид битрейта                             : Переменный
Битрейт                                  : 960 Кбит/сек
Каналы                                   : 2 канала
Частота                                  : 44,1 КГц
Битовая глубина                          : 16 бит
Размер потока                            : 46,4 Мбайт (100%)
Дата кодирования                         : UTC 2010-11-11 13:50:53
Дата пометки                             : UTC 2010-11-11 13:51:58

Общее
Полное имя                               : C:\Alisa-sejchas pozdnee chem ti dumaesh[nnm-club.ru]\06 Антихрист.m4a
Формат                                   : MPEG-4
Профиль формата                          : Apple audio with iTunes info
Идентификатор кодека                     : M4A
Размер файла                             : 24,7 Мбайт
Продолжительность                        : 3 м. 28 с.
Режим общего битрейта                    : Переменный
Общий поток                              : 993 Кбит/сек
Альбом                                   : Сейчас Позднее, Чем Ты Думаешь
Часть/Положение                          : 1
Часть/Всего                              : 1
Трек                                     : Антихрист
Трек/Положение                           : 6
Трек/Всего                               : 9
Исполнитель                              : Алиса
Жанр                                     : Rock
Дата записи                              : 2003
Дата кодирования                         : UTC 2010-11-11 13:51:59
Дата пометки                             : UTC 2010-11-11 13:52:30
Программа кодирования                    : iTunes 10.0.1.22
Encoding Params                          : (Binary)
UFIDhttp://www.cddb.com/id3/taginfo1.htm : 3CD3N62R48830164U2389EA6CC51D123DCED15E06FE5BF687E7EP3

Аудио
Идентификатор                            : 1
Формат                                   : ALAC
Идентификатор кодека                     : alac
Идентификатор кодека/Информация          : Apple Lossless Audio Codec
Продолжительность                        : 3 м. 28 с.
Duration_LastFrame                       : -89 мс.
Вид битрейта                             : Переменный
Битрейт                                  : 992 Кбит/сек
Каналы                                   : 2 канала
Частота                                  : 44,1 КГц
Битовая глубина                          : 16 бит
Размер потока                            : 24,7 Мбайт (100%)
Дата кодирования                         : UTC 2010-11-11 13:51:59
Дата пометки                             : UTC 2010-11-11 13:52:30

Общее
Полное имя                               : C:\Alisa-sejchas pozdnee chem ti dumaesh[nnm-club.ru]\07 Инок, Воин И Шут.m4a
Формат                                   : MPEG-4
Профиль формата                          : Apple audio with iTunes info
Идентификатор кодека                     : M4A
Размер файла                             : 36,8 Мбайт
Продолжительность                        : 5 м. 13 с.
Режим общего битрейта                    : Переменный
Общий поток                              : 983 Кбит/сек
Альбом                                   : Сейчас Позднее, Чем Ты Думаешь
Часть/Положение                          : 1
Часть/Всего                              : 1
Трек                                     : Инок, Воин И Шут
Трек/Положение                           : 7
Трек/Всего                               : 9
Исполнитель                              : Алиса
Жанр                                     : Rock
Дата записи                              : 2003
Дата кодирования                         : UTC 2010-11-11 13:52:30
Дата пометки                             : UTC 2010-11-11 13:53:15
Программа кодирования                    : iTunes 10.0.1.22
Encoding Params                          : (Binary)
UFIDhttp://www.cddb.com/id3/taginfo1.htm : 3CD3N65R48830165U1884B0516CD13A6853FB7EB604C6A0D55F1P2

Аудио
Идентификатор                            : 1
Формат                                   : ALAC
Идентификатор кодека                     : alac
Идентификатор кодека/Информация          : Apple Lossless Audio Codec
Продолжительность                        : 5 м. 13 с.
Duration_LastFrame                       : -68 мс.
Вид битрейта                             : Переменный
Битрейт                                  : 982 Кбит/сек
Каналы                                   : 2 канала
Частота                                  : 44,1 КГц
Битовая глубина                          : 16 бит
Размер потока                            : 36,7 Мбайт (100%)
Дата кодирования                         : UTC 2010-11-11 13:52:30
Дата пометки                             : UTC 2010-11-11 13:53:15

Общее
Полное имя                               : C:\Alisa-sejchas pozdnee chem ti dumaesh[nnm-club.ru]\08 Званые.m4a
Формат                                   : MPEG-4
Профиль формата                          : Apple audio with iTunes info
Идентификатор кодека                     : M4A
Размер файла                             : 39,6 Мбайт
Продолжительность                        : 6 м. 10 с.
Режим общего битрейта                    : Переменный
Общий поток                              : 898 Кбит/сек
Альбом                                   : Сейчас Позднее, Чем Ты Думаешь
Часть/Положение                          : 1
Часть/Всего                              : 1
Трек                                     : Званые
Трек/Положение                           : 8
Трек/Всего                               : 9
Исполнитель                              : Алиса
Жанр                                     : Rock
Дата записи                              : 2003
Дата кодирования                         : UTC 2010-11-11 13:53:15
Дата пометки                             : UTC 2010-11-11 13:54:05
Программа кодирования                    : iTunes 10.0.1.22
Encoding Params                          : (Binary)
UFIDhttp://www.cddb.com/id3/taginfo1.htm : 3CD3N69R48830166V085CC8497D6B08F9D9E1AD01F4B1CD0244P4

Аудио
Идентификатор                            : 1
Формат                                   : ALAC
Идентификатор кодека                     : alac
Идентификатор кодека/Информация          : Apple Lossless Audio Codec
Продолжительность                        : 6 м. 10 с.
Duration_LastFrame                       : -33 мс.
Вид битрейта                             : Переменный
Битрейт                                  : 898 Кбит/сек
Каналы                                   : 2 канала
Частота                                  : 44,1 КГц
Битовая глубина                          : 16 бит
Размер потока                            : 39,6 Мбайт (100%)
Дата кодирования                         : UTC 2010-11-11 13:53:15
Дата пометки                             : UTC 2010-11-11 13:54:05

Общее
Полное имя                               : C:\Alisa-sejchas pozdnee chem ti dumaesh[nnm-club.ru]\09 Душа.m4a
Формат                                   : MPEG-4
Профиль формата                          : Apple audio with iTunes info
Идентификатор кодека                     : M4A
Размер файла                             : 42,5 Мбайт
Продолжительность                        : 6 м. 46 с.
Режим общего битрейта                    : Переменный
Общий поток                              : 876 Кбит/сек
Альбом                                   : Сейчас Позднее, Чем Ты Думаешь
Часть/Положение                          : 1
Часть/Всего                              : 1
Трек                                     : Душа
Трек/Положение                           : 9
Трек/Всего                               : 9
Исполнитель                              : Алиса
Жанр                                     : Rock
Дата записи                              : 2003
Дата кодирования                         : UTC 2010-11-11 13:54:05
Дата пометки                             : UTC 2010-11-11 13:54:57
Программа кодирования                    : iTunes 10.0.1.22
Encoding Params                          : (Binary)
UFIDhttp://www.cddb.com/id3/taginfo1.htm : 3CD3N72R48830167V58127AB9E3BD7D05B438C21B0B5805A92DP0

Аудио
Идентификатор                            : 1
Формат                                   : ALAC
Идентификатор кодека                     : alac
Идентификатор кодека/Информация          : Apple Lossless Audio Codec
Продолжительность                        : 6 м. 46 с.
Duration_LastFrame                       : -54 мс.
Вид битрейта                             : Переменный
Битрейт                                  : 875 Кбит/сек
Каналы                                   : 2 канала
Частота                                  : 44,1 КГц
Битовая глубина                          : 16 бит
Размер потока                            : 42,5 Мбайт (100%)
Дата кодирования                         : UTC 2010-11-11 13:54:05
Дата пометки                             : UTC 2010-11-11 13:54:57

Время раздачи: 24/7 (круглосуточно)
Реставрация от: sseless
Alisa-sejchas pozdnee chem ti dumaesh[nnm-club.ru].torrent
 Торрент: Платиновая раздача  Зарегистрирован
 
Скачать


 Зарегистрирован:   11 Ноя 2010 15:17:52
 Размер:   324 MB  (
 Рейтинг:   4.6 (Голосов: 39)
 Поблагодарили:   91
 Проверка:   Оформление проверено модератором 11 Ноя 2010 15:24:21
Как cкачать  ·  Как раздать  ·  Правильно оформить  ·  Поднять ратио!  
Показать сообщения:   
Начать новую тему   Ответить на тему    Торрент-трекер NNM-Club -> Аудио и Видео -> Музыка Lossless (ALAC) Часовой пояс: GMT + 3
Страница 1 из 1