Классический форум-трекер
canvas not supported
Нас вместе: 4 114 090

Рождественская ёлка / "Oh, Christmas Tree" (1999) DVDRip


 
 
RSS
Начать новую тему   Ответить на тему    Торрент-трекер NNM-Club -> Мультфильмы -> Зарубежные Мультфильмы (HD*Rip/LQ, DVDRip, SATRip, VHSRip)
Автор Сообщение
ЛАНА КИМ ®
Стаж: 10 лет 6 мес.
Сообщений: 394
Ratio: 13,031
Поблагодарили: 28094
100%
russia.gif
Рождественская ёлка / "Oh, Christmas Tree" (1999) DVDRip
Страна: США
Жанр: Мультфильм
Продолжительность: 00:48:00
Год выпуска: 1999
Перевод: Профессиональный (многоголосый закадровый)
Русские субтитры: нет
Режиссёр: Берт Ринг / Bert RingРоли озвучивали: Мари Осмонд, Эдвард Эснер, Тим Конуэй, Памела Адлон, Деби Дерриберри, Джесс Харнелл
Описание: Эта история приключилась под самое Рождество. Все в Зимнем лесу готовятся к празднику. Но маленькая Зеленая Елочка боится, что ей никогда не стать настоящей Рождественской Елкой.
Медвежонок, Белочка, старик Щелкунчик и сам Санта Клаус решили помочь Елочке осуществить ее мечту. Ведь в Рождество происходят самые невероятные чудеса и все мечты обязательно сбываются!

Качество:
DVDRip
Формат: AVI
Видео кодек: XviD
Аудио кодек: AC3
Видео: 688x528 (1.30:1), 25.000 fps, XviD MPEG-4 ~1 967 kbps avg, 0.22 bit/pixel
Аудио: 48 kHz, AC3 Dolby Digital, 2 ch, ~192 kbps
Субтитры: отсутствуют

Сэмпл: Ссылка
Формат : AVI
Формат/Информация : Audio Video Interleave
Размер файла : 745 Мбайт
Продолжительность : 48 м.
Общий поток : 2169 Кбит/сек
Программа кодирования : VirtualDubMod 1.5.10.2 (build 2540/release)
Библиотека кодирования : VirtualDubMod build 2540/release

Видео
Идентификатор : 0
Формат : MPEG-4 Visual
Профиль формата : Advanced Simple@L5
Параметр BVOP формата : 1
Параметр QPel формата : Нет
Параметр GMC формата : Без точки перехода
Параметр матрицы формата : Default (MPEG)
Идентификатор кодека : XVID
Идентификатор кодека/Подсказка : XviD
Продолжительность : 48 м.
Битрейт : 1967 Кбит/сек
Ширина : 688 пикселей
Высота : 528 пикселей
Соотношение сторон : 4:3
Частота кадров : 25,000 кадров/сек
Цветовое пространство : YUV
Субдискретизация насыщенности : 4:2:0
Битовая глубина : 8 бит
Тип развёртки : Прогрессивная
Метод сжатия : С потерями
Бит/(Пиксели*Кадры) : 0.217
Размер потока : 675 Мбайт (91%)
Библиотека кодирования : XviD 1.2.1 (UTC 2008-12-04)

Аудио
Идентификатор : 1
Формат : AC-3
Формат/Информация : Audio Coding 3
Расширение режима : CM (complete main)
Параметр Endianness формата : Big
Идентификатор кодека : 2000
Продолжительность : 48 м.
Вид битрейта : Постоянный
Битрейт : 192 Кбит/сек
Каналы : 2 канала
Расположение каналов : Front: L R
Частота : 48,0 КГц
Битовая глубина : 16 бит
Метод сжатия : С потерями
Размер потока : 65,9 Мбайт (9%)
Выравнивание : Разделение по промежуткам
Продолжительность промежутка : 40 мс. (1,00 видеокадр)
Время предзагрузки промежутка : 500 мс.


Время раздачи: с10-22
[NNM-Club.ru]_Rojdestvenskaya.elka.avi.torrent
 Торрент: Платиновая раздача  Зарегистрирован
 
Скачать


Примагнититься
 Зарегистрирован:   01 Дек 2010 18:45:43
 Размер:   745 MB  (
 Рейтинг:   4,3 (Голосов: 31)
 Поблагодарили:   118
 Проверка:   Оформление проверено модератором 01 Дек 2010 19:04:14
Как cкачать  ·  Как раздать  ·  Правильно оформить  ·  Поднять ратио!  

_________________

ЛАНА КИМ ®
Стаж: 10 лет 6 мес.
Сообщений: 394
Ratio: 13,031
Поблагодарили: 28094
100%
russia.gif


_________________

wikwik
Стаж: 10 лет 6 мес.
Сообщений: 539
Ratio: 2,05
100%
russia.gif
Спасибо,судя по скринам красивый мульт.Внучке очень нравятся такие.
alex031977
Стаж: 9 лет 8 мес.
Сообщений: 22
Ratio: 3,264
100%
Откуда: Cибирь
russia.gif
спасибо большое :НГ_прыжок:
Arx1meD
Стаж: 10 лет 8 мес.
Сообщений: 285
Ratio: 15,166
Поблагодарили: 4460
100%
Откуда: Донецк
ussr.gif
В Южном парке на этот мультик пародия была.
Zai4yona
Стаж: 9 лет 5 мес.
Сообщений: 3
Ratio: 0,401
58.33%
russia.gif
Спасибо :НГ_прыжок:
tigrgrom
Стаж: 7 лет 2 мес.
Сообщений: 35
Ratio: 17,304
Раздал: 1,724 TB
100%
russia.gif
сиды вы гдеееееее?
starklad
RG Всё лучшее - детям!
Реставратор Детского, Uploader 100+
 
Стаж: 8 лет 5 мес.
Сообщений: 7935
Ratio: 12K
Поблагодарили: 200272
100%
Откуда: родом из СССР
ussr.gif
tigrgrom
Встал на поддержку релиза
Код:
[poster=right]http://i.imgur.com/0fwNFts.jpg[/poster]
Формат : AVI
Формат/Информация : Audio Video Interleave
Размер файла : 745 Мбайт
Продолжительность : 48 м.
Общий поток : 2169 Кбит/сек
Программа кодирования : VirtualDubMod 1.5.10.2 (build 2540/release)
Библиотека кодирования : VirtualDubMod build 2540/release

Видео
Идентификатор : 0
Формат : MPEG-4 Visual
Профиль формата : Advanced Simple@L5
Параметр BVOP формата : 1
Параметр QPel формата : Нет
Параметр GMC формата : Без точки перехода
Параметр матрицы формата : Default (MPEG)
Идентификатор кодека : XVID
Идентификатор кодека/Подсказка : XviD
Продолжительность : 48 м.
Битрейт : 1967 Кбит/сек
Ширина : 688 пикселей
Высота : 528 пикселей
Соотношение сторон : 4:3
Частота кадров : 25,000 кадров/сек
Цветовое пространство : YUV
Субдискретизация насыщенности : 4:2:0
Битовая глубина : 8 бит
Тип развёртки : Прогрессивная
Метод сжатия : С потерями
Бит/(Пиксели*Кадры) : 0.217
Размер потока : 675 Мбайт (91%)
Библиотека кодирования : XviD 1.2.1 (UTC 2008-12-04)

Аудио
Идентификатор : 1
Формат : AC-3
Формат/Информация : Audio Coding 3
Расширение режима : CM (complete main)
Параметр Endianness формата : Big
Идентификатор кодека : 2000
Продолжительность : 48 м.
Вид битрейта : Постоянный
Битрейт : 192 Кбит/сек
Каналы : 2 канала
Расположение каналов : Front: L R
Частота : 48,0 КГц
Битовая глубина : 16 бит
Метод сжатия : С потерями
Размер потока : 65,9 Мбайт (9%)
Выравнивание : Разделение по промежуткам
Продолжительность промежутка : 40 мс. (1,00 видеокадр)
Время предзагрузки промежутка : 500 мс.
Показать сообщения:   
Начать новую тему   Ответить на тему    Торрент-трекер NNM-Club -> Мультфильмы -> Зарубежные Мультфильмы (HD*Rip/LQ, DVDRip, SATRip, VHSRip) Часовой пояс: GMT + 3
Страница 1 из 1