Классический форум-трекер
canvas not supported
Нас вместе: 4 232 201

Before The Dawn - Deathstar Rising [Limited Edition] (2011) [FLAC|Lossless|image+.cue]<Melodic Death Metal/Gothic Metal>


 
 
RSS
Начать новую тему   Ответить на тему    Торрент-трекер NNM-Club -> Rock, Alternative, Punk, Metal -> Metal (Lossless)
Автор Сообщение
Shuran80 ®
Свободный релизер
 
Стаж: 15 лет
Сообщений: 3351
Ratio: 1102.143
Раздал: 87.06 TB
Поблагодарили: 195236
100%
Откуда: Ленинград
ussr.gif
Before The Dawn - Deathstar Rising [Limited Edition] (2011)
Год: 2011
Жанр: Melodic Death Metal/Gothic Metal
Страна: Финляндия
Источник (Релизер): snecy
Продолжительность: 00:56:26

Кодек: FLAC (image+.cue)
Битрейт: Lossless

Треклист:
01. The First Snow (1:20)
02. Winter Within (4:32)
03. Deathstar (3:31)
04. Remembrance (3:39)
05. Unbroken (4:40)
06. Judgement (4:20)
07. The Wake (5:08)
08. Sanctuary (4:52)
09. Butterfly Effect (3:54)
10. Wreith (5:17)
11. Infinity (Demo 1998) (3:02)
12. My Room (Acoustic Version) (4:28)
13. Unbreakable (Live) (3:19)
14. The Black (Live) (4:25)
Код: выделить все

Exact Audio Copy V0.99 prebeta 5 from 4. May 2009

EAC extraction logfile from 8. March 2011, 11:43

Before The Dawn / Deathstar Rising Ltd. Ed.

Used drive  : _NEC    DVD_RW ND-3540A   Adapter: 0  ID: 0

Read mode               : Secure
Utilize accurate stream : Yes
Defeat audio cache      : Yes
Make use of C2 pointers : No

Read offset correction                      : 48
Overread into Lead-In and Lead-Out          : No
Fill up missing offset samples with silence : Yes
Delete leading and trailing silent blocks   : No
Null samples used in CRC calculations       : Yes
Used interface                              : Native Win32 interface for Win NT & 2000

Used output format              : User Defined Encoder
Selected bitrate                : 40 kBit/s
Quality                         : High
Add ID3 tag                     : No
Command line compressor         : C:\Program Files\Exact Audio Copy\FLAC.EXE
Additional command line options : -6 -V %s

TOC of the extracted CD

     Track |   Start  |  Length  | Start sector | End sector
    ---------------------------------------------------------
        1  |  0:00.00 |  1:20.24 |         0    |     6023
        2  |  1:20.24 |  4:32.04 |      6024    |    26427
        3  |  5:52.28 |  3:31.04 |     26428    |    42256
        4  |  9:23.32 |  3:38.47 |     42257    |    58653
        5  | 13:02.04 |  4:39.73 |     58654    |    79651
        6  | 17:42.02 |  4:20.27 |     79652    |    99178
        7  | 22:02.29 |  5:07.61 |     99179    |   122264
        8  | 27:10.15 |  4:52.33 |    122265    |   144197
        9  | 32:02.48 |  3:53.67 |    144198    |   161739
       10  | 35:56.40 |  5:16.60 |    161740    |   185499
       11  | 41:13.25 |  3:02.11 |    185500    |   199160
       12  | 44:15.36 |  4:27.59 |    199161    |   219244
       13  | 48:43.20 |  3:18.45 |    219245    |   234139
       14  | 52:01.65 |  4:25.06 |    234140    |   254020

Range status and errors

Selected range

     Filename E:\BEFORE THE DAWN [2011] [CD] Deathstar Rising (Ltd. Ed. 4 Bonus) [EAC-FLAC] by snecy [MeTaLMaDNeSS.TeaM]\Before The Dawn - Deathstar Rising Limited Edition.wav

     Peak level 100.0 %
     Range quality 100.0 %
     Copy CRC 27CA5D20
     Copy OK

No errors occurred

AccurateRip summary

Track  1  not present in database
Track  2  not present in database
Track  3  not present in database
Track  4  not present in database
Track  5  not present in database
Track  6  not present in database
Track  7  not present in database
Track  8  not present in database
Track  9  not present in database
Track 10  not present in database
Track 11  not present in database
Track 12  not present in database
Track 13  not present in database
Track 14  not present in database

None of the tracks are present in the AccurateRip database

End of status report

Код: выделить все

-----------------------

DON'T MODIFY THIS FILE

-----------------------

PERFORMER: auCDtect Task Manager, ver. 1.5.1RC4 build 1.5.1.5
Copyright (c) 2008-2010 y-soft. All rights reserved
http://y-soft.org

ANALYZER: auCDtect: CD records authenticity detector, version 0.8.2
Copyright (c) 2004 Oleg Berngardt. All rights reserved.
Copyright (c) 2004 Alexander Djourik. All rights reserved.

FILE: Before The Dawn - Deathstar Rising Limited Edition.flac
  Size: 425342136 Hash: 713438DC92E04EABC74169C3C67C28D5 Accuracy: -m0
  Conclusion: CDDA 100%
  Signature: 76DCE1A5864BD2CCB643AE050DD2CB0192B5E21B

Before the Dawn — финская англоязычная метал-группа. Название группы переводится с английского, как «Перед Рассветом». Группа была основана в 1999 году Туомасом Саукконеном.

Состав:
Туомас Саукконен (Tuomas Saukkonen) — вокал, гитара, ударные, клавишные
Ларс Эйкинд (Lars Eikind) — вокал, бас-гитара
Юхо Ряйхя (Juho Räihä) — гитара
Атте Палокангас (Atte Palokangas) — ударные

Оф. сайт группы
Время раздачи: Обычно с 19:00 до 00:00 :спит:


Поглощение/вытеснение
Только с согласия релизера

J_Man
[NNM-Club.ru]_Before The Dawn - Deathstar Rising [Limited Edition] (2011) FLAC.torrent
 Торрент: Платиновая раздача  Зарегистрирован
 
Скачать


Примагнититься
 Зарегистрирован:   05 Дек 2018 14:59:43
 Размер:   464 MB  (
 Рейтинг:   4.8 (Голосов: 25)
 Поблагодарили:   58
 Проверка:   Оформление проверено модератором 05 Дек 2018 14:59:48
Как cкачать  ·  Как раздать  ·  Правильно оформить  ·  Поднять ратио!  

_________________
Внимание! Временно отсутствую на своих раздачах. Просьба понять и простить.
Che13
Сталкер
Стаж: 17 лет 3 мес.
Сообщений: 9076
Ratio: 1325.065
Поблагодарили: 69528
100%
pirates.png
хороший альбомчик :клево:
yurikd
Стаж: 13 лет 10 мес.
Сообщений: 2
Ratio: 3.445
100%
Мерси от поклонника Сауканена! (скоро куплю альбус)
sinc
Стаж: 16 лет 2 мес.
Сообщений: 175
Ratio: 8.391
12.21%
В .jpg скане обнаружен троян двумя антивирусниками.
Показать сообщения:   
Начать новую тему   Ответить на тему    Торрент-трекер NNM-Club -> Rock, Alternative, Punk, Metal -> Metal (Lossless) Часовой пояс: GMT + 3
Страница 1 из 1