Классический форум-трекер
canvas not supported
Нас вместе: 4 171 871

Женаты, с детьми / Married with children (1987) DVDRip (cезон 1)


 
 
RSS
Начать новую тему   Ответить на тему    Торрент-трекер NNM-Club -> Зарубежные сериалы
Автор Сообщение
D_D_S ®
Стаж: 14 лет 6 мес.
Сообщений: 35
Ratio: 1.714
Поблагодарили: 1699
0%
Откуда: Москва
russia.gif
Женаты, с детьми / Married with children (1987) DVDRip (cезон 1)
Год выпуска: 1987
Жанр: Комедия
Перевод: Многоголосый закадровый, профессиональный


Дата мировой премьеры: 5 апреля 1987

Режиссер: Джерри Коэн, Линда Дэй, Аманда Бирз
Актеры: Эд О’Нил, Кэти Сагал, Аманда Бирз, Дэвид Фаустино, Кристина Эпплгейт, Бак, Тед МакГинли, Дэвид Гаррисон, Кевин Каррен, Лаки, Бубба Смит, Мэтт ЛеБлан, Тим Конуэй

Описание фильма:
Сериал о жизни торговца обувью по имени Эл Банди.
Эл Банди женат уже много лет. Работает продавцом обуви. Он вечно голоден, так как жена Пегги никогда не готовит и вообще не выполняет работу по дому, смотрит целый день ток-шоу и сериалы. У них двое детей: Красотка Келли, прямо из анекдота про блондинку, и сексуально озабоченный Бад.
Все семейство не любит друг друга. Они постоянно издеваются друг над другом (особенно над Элом). Еще у них есть соседи: феминистка Марси, банковский работник Стив.

Продолжительность: 13 х ~00:23:00
Качество видео: DVDRip
Видеокодек: Xvid
Битрейт видео: ~1250 Кбит/с
Размер кадра: 576x432
Аудио #1: MP3, 2 ch, 128 Кбит/с (Русский)
Аудио #2: MP3, 2 ch, 128 Кбит/с (Английский)
General
Complete name : D:\Married With Children\Married With Children - S01\Married With Children 001 (01x01) - Pilot.avi
Format : AVI
Format/Info : Audio Video Interleave
File size : 251 MiB
Duration : 22mn 50s
Overall bit rate : 1 538 Kbps
Writing application : VirtualDubMod 1.5.10.2 (build 2540/release)
Writing library : VirtualDubMod build 2540/release

Video
ID : 0
Format : MPEG-4 Visual
Format settings, BVOP : No
Format settings, QPel : No
Format settings, GMC : No warppoints
Format settings, Matrix : Default (H.263)
Codec ID : XVID
Codec ID/Hint : XviD
Duration : 22mn 50s
Bit rate : 1 282 Kbps
Width : 576 pixels
Height : 432 pixels
Display aspect ratio : 4:3
Frame rate : 29.970 fps
Color space : YUV
Chroma subsampling : 4:2:0
Bit depth : 8 bits
Scan type : Progressive
Compression mode : Lossy
Bits/(Pixel*Frame) : 0.172
Stream size : 210 MiB (83%)

Audio #1
ID : 1
Format : MPEG Audio
Format version : Version 1
Format profile : Layer 3
Mode : Joint stereo
Mode extension : MS Stereo
Codec ID : 55
Codec ID/Hint : MP3
Duration : 22mn 50s
Bit rate mode : Constant
Bit rate : 128 Kbps
Channel(s) : 2 channels
Sampling rate : 48.0 KHz
Compression mode : Lossy
Stream size : 20.9 MiB (8%)
Alignment : Split accross interleaves
Interleave, duration : 33 ms (1.00 video frame)
Interleave, preload duration : 500 ms
Writing library : LAME3.97 (beta)

Audio #2
ID : 2
Format : MPEG Audio
Format version : Version 1
Format profile : Layer 3
Mode : Joint stereo
Codec ID : 55
Codec ID/Hint : MP3
Duration : 22mn 50s
Bit rate mode : Variable
Bit rate : 108 Kbps
Nominal bit rate : 128 Kbps
Channel(s) : 2 channels
Sampling rate : 48.0 KHz
Compression mode : Lossy
Stream size : 17.6 MiB (7%)
Alignment : Aligned on interleaves
Interleave, duration : 24 ms (0.72 video frame)
Interleave, preload duration : 455 ms
Writing library : LAME3.92
Encoding settings : -m j -V 0 -q 2 -lowpass 15.3 --abr 128
1. Pilot
2. Thinergy
3. But I Didn't Shoot The Deputy
4. Whose Room Is It Anyway
5. Have You Driven A Ford Lately
6. Sixteen Years And What Do You Get
7. Married Without Children
8. The Poker Game
9. Peggy Sue Got Work
10. Al Loses His Cherry
11. Nightmare On Al's Street
12. Where's The Boss
13. Johnny B. Gone
В середине каждой серии минуты на две пропадает русский перевод. Причина - этот перевод подгонялся под DVDRip с рипа с канала "Домашний", а там почему-то эти две минуты вырезаны.
Скриншоты:

Все раздачи «Женаты, с детьми / Married with children» на NNM-Club
Время раздачи: В будни - по ночам (21:00-08:00 MSK). В выходные - как могу.
Married With Children - S01.torrent
 Торрент: Платиновая раздача  Зарегистрирован
 
Скачать


 Зарегистрирован:   17 Авг 2007 15:37:34
 Размер:   3.24 GB  (
 Рейтинг:   4.7 (Голосов: 46)
 Поблагодарили:   121
 Проверка:   Оформление проверено модератором 18 Авг 2007 11:52:17
Как cкачать  ·  Как раздать  ·  Правильно оформить  ·  Поднять ратио!  
atomicsam
Стаж: 13 лет 11 мес.
Сообщений: 38
Ratio: 1.835
Поблагодарили: 1142
100%
belarus.gif
так перевод тот что на канале Домашний? а ДТВ-шного нигде никто не наблюдал?
Робин Гот
Стаж: 10 лет
Сообщений: 27
Ratio: 34.404
100%
не знаете, где взять оригинал с субтитрами?
adhi
Стаж: 10 лет 5 мес.
Сообщений: 74
Ratio: 80.826
100%
russia.gif
Я тут по ходу единственный, кто смотрел?
Вопрос
Почему в каждой серии кусок в 100 сек не звучит по русски?
Или 2 куска в сумме в 100 сек в следующих сезонах.
где-нить есть без этих траблов?
Показать сообщения:   
Начать новую тему   Ответить на тему    Торрент-трекер NNM-Club -> Зарубежные сериалы Часовой пояс: GMT + 3
Страница 1 из 1