Классический форум-трекер
canvas not supported
Нас вместе: 4 234 481

Секретное оружие (2006) DVDRip


 
 
RSS
Начать новую тему   Ответить на тему    Торрент-трекер NNM-Club -> Отечественное кино -> Отечественные Фильмы (SD)
Автор Сообщение
Metr_72 ®
Релизер-меломан
Стаж: 17 лет 2 мес.
Сообщений: 2434
Ratio: 13.061
Поблагодарили: 28051
100%
Откуда: Rivne Сельская местность
ukraine.gif
Секретное оружие (2006) DVDRip
Производство: Россия / Синебридж
Жанр: боевик, драма, мелодрама, военный

Режиссер: Виталий Воробьёв
Актеры: Кирил Плетнёв, Михаил Присмотров, Ян Цапник, Иван Моховиков, Вадим Андреев

Описание:
На войне бывает всё. Ломаются судьбы, обнажаются самые потаённые человеческие качества. Рядовое на первый взгляд поручение может превратиться в крайне рискованную операцию с непредсказуемыми последствиями. Разведчики взвода лейтенанта Бесфамильного (Противостояние) получают задание - проверить информацию о секретном бункере фашистов. Они успешно переходят линию фронта, но дальше всё идёт не так, как было запланированно.....


Возраст: 12+ (зрителям, достигшим 12 лет)

Качество видео: DVDRip
Продолжительность: 01:42:43

Видео: XviD, 704x384, ~1710 Kbps
Аудио: AC3, 2 ch, Kbps
Общее
Полное имя : Sekretnoe.orushie.2006.XviD.DVDRip.avi
Формат : AVI
Формат/Информация : Audio Video Interleave
Размер файла : 1,37 Гбайт
Продолжительность : 1 ч. 42 м.
Общий поток : 1911 Кбит/сек
Программа кодирования : VirtualDubMod 1.5.10.2 (build 2540/release)
Библиотека кодирования : VirtualDubMod build 2540/release

Видео
Идентификатор : 0
Формат : MPEG-4 Visual
Профиль формата : Advanced Simple@L5
Настройки формата : BVOP1
Параметр BVOP формата : 1
Параметр QPel формата : Нет
Параметр GMC формата : Без точки перехода
Параметр матрицы формата : Default (H.263)
Идентификатор кодека : XVID
Идентификатор кодека/Подсказка : XviD
Продолжительность : 1 ч. 42 м.
Битрейт : 1711 Кбит/сек
Ширина : 704 пикселя
Высота : 384 пикселя
Соотношение сторон : 1,85:1
Частота кадров : 25,000 кадров/сек
Цветовое пространство : YUV
Субдискретизация насыщенности : 4:2:0
Битовая глубина : 8 бит
Тип развёртки : Прогрессивная
Метод сжатия : С потерями
Бит/(Пиксели*Кадры) : 0.253
Размер потока : 1,23 Гбайт (90%)
Библиотека кодирования : XviD 1.2.0.dev47 (UTC 2006-11-01)

Аудио
Идентификатор : 1
Формат : AC-3
Формат/Информация : Audio Coding 3
Коммерческое название : Dolby Digital
Идентификатор кодека : 2000
Продолжительность : 1 ч. 41 м.
Вид битрейта : Постоянный
Битрейт : 192 Кбит/сек
Каналы : 2 канала
ChannelLayout : L R
Частота : 48,0 КГц
Частота кадров : 31,250 кадров/сек (1536 SPF)
Битовая глубина : 16 бит
Метод сжатия : С потерями
Задержка видео : 4 с. 508 мс.
Размер потока : 140 Мбайт (10%)
Выравнивание : Разделение по промежуткам
Продолжительность промежутка : 40 мс. (1,01 видеокадр)
Время предзагрузки промежутка : 500 мс.
ServiceKind/String : Complete Main
Скриншоты:


Все одноименные релизы в Клубе

Время раздачи: 24/7
[NNMClub.to]_Sekretnoe.orushie.2006.XviD.DVDRip.avi.torrent
 Торрент: Платиновая раздача  Зарегистрирован
 
Скачать


Примагнититься
 Зарегистрирован:   05 Ноя 2019 19:44:22
 Размер:   1.37 GB  (
 Рейтинг:   4.7 (Голосов: 35)
 Поблагодарили:   198
 Проверка:   Оформление проверено модератором 05 Ноя 2019 19:47:37
Как cкачать  ·  Как раздать  ·  Правильно оформить  ·  Поднять ратио!  
glstas
Стаж: 13 лет 11 мес.
Сообщений: 185
Ratio: 1.049
100%
ukraine.gif
сидорните кто сможет - 2 й день 0%
Показать сообщения:   
Начать новую тему   Ответить на тему    Торрент-трекер NNM-Club -> Отечественное кино -> Отечественные Фильмы (SD) Часовой пояс: GMT + 3
Страница 1 из 1