Классический форум-трекер
canvas not supported
Нас вместе: 4 234 482

Фестиваль "Нашествие 2011" Океан Ельзи (Океан Эльзы) (10.07.2011) WebRip <Rock>


 
 
RSS
Начать новую тему   Ответить на тему    Торрент-трекер NNM-Club -> Театр и Музыкальное видео -> Концерты (SD)
Автор Сообщение
Metr_72 ®
Релизер-меломан
Стаж: 17 лет 2 мес.
Сообщений: 2434
Ratio: 13.061
Поблагодарили: 28051
100%
Откуда: Rivne Сельская местность
ukraine.gif
Фестиваль "Нашествие 2011" (Океан Ельзи) (10.07.2011) WebRip <Rock>

Жанр: Rock

Описание:
В минувшие выходные в Тверской области состоялся ежегодный музыкальный фестиваль «Нашествие».
Проведению опен-эйра препятствовала эпидемия африканской чумы свиней (мнимая или настоящая?), из-за которой на территории Тверской области были отменены все массовые мероприятия.
Но «Нашествие» непотопляемо: несмотря на проблемы с властями региона, оно все-таки состоялось, и в этом году отметило свой десятилетний юбилей. «Главное приключение лета» посетило более 170 000 человек.
Украинская группа Океан Эльзы закрывала третий день фестиваля.
Выступление было как всегда наполнено драйвом и энергетикой.

Треклист:
1. Майже весна
2. Там де нам нема
3. Позич мені сонце
4. Модель
5. Якби колись сказала ти мені
6. Я так хочу до тебе
7. Давай залишимо більше для нас
8. На лінії вогню
9. Я не здамся без бою
10. Той день
11. 911
12. Вулиця (може все не так)

Продолжительность: 01:06:21
Качество видео: WebRip

Видео: DivX 4, 640x360, 1064 Кbps
Аудио: MP3, 2 ch, 192 Kbps
Полное имя                               : Z:\Концерты\Hashestvie2011_OE.avi
Формат : AVI
Формат/Информация : Audio Video Interleave
Размер файла : 602 Мбайт
Продолжительность : 1 ч. 6 м.
Общий поток : 1269 Кбит/сек
Программа кодирования : Lavf52.32.0

Видео
Идентификатор : 0
Формат : MPEG-4 Visual
Профиль формата : Simple@L1
Параметр BVOP формата : Нет
Параметр QPel формата : Нет
Параметр GMC формата : Без точки перехода
Параметр матрицы формата : Default (H.263)
Идентификатор кодека : DIVX
Идентификатор кодека/Информация : Project Mayo
Идентификатор кодека/Подсказка : DivX 4
Продолжительность : 1 ч. 6 м.
Битрейт : 1064 Кбит/сек
Ширина : 640 пикселей
Высота : 360 пикселей
Соотношение сторон : 16:9
Частота кадров : 23,976 кадра/сек
Цветовое пространство : YUV
Субдискретизация насыщенности : 4:2:0
Битовая глубина : 8 бит
Тип развёртки : Прогрессивная
Метод сжатия : С потерями
Бит/(Пиксели*Кадры) : 0.193
Размер потока : 505 Мбайт (84%)
Библиотека кодирования : Lavc52.22.3

Аудио
Идентификатор : 1
Формат : MPEG Audio
Версия формата : Version 1
Профиль формата : Layer 3
Режим : Joint stereo
Расширение режима : MS Stereo
Идентификатор кодека : 55
Идентификатор кодека/Подсказка : MP3
Продолжительность : 1 ч. 6 м.
Вид битрейта : Постоянный
Битрейт : 192 Кбит/сек
Каналы : 2 канала
Частота : 44,1 КГц
Метод сжатия : С потерями
Размер потока : 91,1 Мбайт (15%)
Выравнивание : Соединение по промежуткам
Продолжительность промежутка : 26 мс. (0,63 видеокадр)
Библиотека кодирования : LAME3.98.2
Скриншоты:
//////


Время раздачи: 7 / 24
[NNM-Club.ru]_Hashestvie2011_OE.avi.torrent
 Торрент: Платиновая раздача  Зарегистрирован
 
Скачать


Примагнититься
 Зарегистрирован:   14 Июл 2011 21:48:11
 Размер:   602 MB  (
 Рейтинг:   4.6 (Голосов: 32)
 Поблагодарили:   102
 Проверка:   Оформление проверено модератором 15 Июл 2011 01:00:54
Как cкачать  ·  Как раздать  ·  Правильно оформить  ·  Поднять ратио!  
Jurgen123
Стаж: 15 лет 9 мес.
Сообщений: 140
Ratio: 8.046
Поблагодарили: 83
100%
macau.gif
Очень интересно !?Тут что одна группа ? :нет:
Metr_72 ®
Релизер-меломан
Стаж: 17 лет 2 мес.
Сообщений: 2434
Ratio: 13.061
Поблагодарили: 28051
100%
Откуда: Rivne Сельская местность
ukraine.gif
Jurgen123 писал(а): Перейти к сообщению
Очень интересно !?Тут что одна группа ? :нет:

Да 1 группа, 12 песен, продолжительность выступления около часа...
sentinel2727
Стаж: 17 лет 4 мес.
Сообщений: 4339
Ratio: 94.053
Поблагодарили: 33954
100%
Откуда: Odessa
ukraine.gif
Jurgen123 писал(а): Перейти к сообщению
Очень интересно !?Тут что одна группа ? :нет:


в каждом релизе- одна группа- ищем здесь

Фестиваль "Нашествие 2011 "
FrizzyOne
Стаж: 14 лет
Сообщений: 68
Ratio: 43.992
100%
Откуда: Russia
ussr.gif
Metr_72 писал(а):
12. Може все не так

последняя песня этого концерта называется "Вулиця (може все не так)", а не наоборот либо с сокращениями...
Metr_72 ®
Релизер-меломан
Стаж: 17 лет 2 мес.
Сообщений: 2434
Ratio: 13.061
Поблагодарили: 28051
100%
Откуда: Rivne Сельская местность
ukraine.gif
Показать сообщения:   
Начать новую тему   Ответить на тему    Торрент-трекер NNM-Club -> Театр и Музыкальное видео -> Концерты (SD) Часовой пояс: GMT + 3
Страница 1 из 1