Классический форум-трекер
canvas not supported
Нас вместе: 4 234 484

Фестиваль "Нашествие 2011 " (Гарик Сукачев и Неприкасаемые) (09.07.2011) WebRip <Rock>


 
 
RSS
Начать новую тему   Ответить на тему    Торрент-трекер NNM-Club -> Театр и Музыкальное видео -> Концерты (SD)
Автор Сообщение
Metr_72 ®
Релизер-меломан
Стаж: 17 лет 2 мес.
Сообщений: 2434
Ratio: 13.061
Поблагодарили: 28051
100%
Откуда: Rivne Сельская местность
ukraine.gif
Фестиваль "Нашествие 2011 " (Гарик Сукачев и Неприкасаемые) (09.07.2011) WebRip <Rock>
Жанр:
Rock

Описание:
В минувшие выходные в Тверской области состоялся ежегодный музыкальный фестиваль «Нашествие».
Проведению опен-эйра препятствовала эпидемия африканской чумы свиней (мнимая или настоящая?), из-за которой на территории Тверской области были отменены все массовые мероприятия.
Но «Нашествие» непотопляемо: несмотря на проблемы с властями региона, оно все-таки состоялось, и в этом году отметило свой десятилетний юбилей. «Главное приключение лета» посетило более 170 000 человек.
Представляли Г.Сукачева И. Охлобыстин и М. Ефремов.
Гарик Сукачев начал с представления фильма о В.С. Высоцком.
Позже на главной сцене «Нашествия» Сукачев, Охлoбыстин и Ефремов вместе спели хит Гарика «А за окошком месяц май»
Выступление Гарика и «Неприкасаемых» было очень бесшабашным и одним из лучших на фестивале…


Продолжительность: 01:07:58
Видеокодек: AVC/H.264
Битрейт видео: 874 Кbps
Размер кадра: 640x320
Качество видео: VebRip
Аудио окодек: MP3 2.0
Битрейт аудио: 128 Kbps


Треклист:
1. Вступление
2. Презентация фильма о В.С. Высоцком
3. Кони превередливые
4. О чем поет гитара
5. Это был ангел
6. Старуха судьба
7. Месяц май
8. Я милого узнаю по походке
9. Белые дороги
10. Бела чао
11. Напои меня водой
12. Моя бабушка курит трубку
13 Детство не вернуть

Код:

Полное имя                               : Z:\Концерты\Hashestvie2011_Suka4ev.avi
Формат                                   : AVI
Формат/Информация                        : Audio Video Interleave
Размер файла                             : 492 Мбайт
Продолжительность                        : 1 ч. 7 м.
Общий поток                              : 1012 Кбит/сек

Видео
Идентификатор                            : 0
Формат                                   : AVC
Формат/Информация                        : Advanced Video Codec
Профиль формата                          : Main@L2.2
Параметр CABAC формата                   : Да
Параметр ReFrames формата                : 1 кадр
Идентификатор кодека                     : X264
Идентификатор кодека/Информация          : XiWave GNU GPL x264 MPEG-4
Продолжительность                        : 1 ч. 7 м.
Битрейт                                  : 874 Кбит/сек
Ширина                                   : 640 пикселей
Высота                                   : 320 пикселей
Соотношение сторон                       : 1,962
Частота кадров                           : 15,000 кадров/сек
Цветовое пространство                    : YUV
Субдискретизация насыщенности            : 4:2:0
Битовая глубина                          : 8 бит
Тип развёртки                            : Прогрессивная
Бит/(Пиксели*Кадры)                      : 0.284
Размер потока                            : 425 Мбайт (86%)

Аудио
Идентификатор                            : 1
Формат                                   : MPEG Audio
Версия формата                           : Version 1
Профиль формата                          : Layer 3
Идентификатор кодека                     : 55
Идентификатор кодека/Подсказка           : MP3
Продолжительность                        : 1 ч. 7 м.
Вид битрейта                             : Постоянный
Битрейт                                  : 128 Кбит/сек
Каналы                                   : 2 канала
Частота                                  : 44,1 КГц
Метод сжатия                             : С потерями
Размер потока                            : 62,2 Мбайт (13%)
Выравнивание                             : Разделение по промежуткам
Продолжительность промежутка             : 26  мс. (0,39 видеокадр)
Время предзагрузки промежутка            : 76  мс.

.

Скриншоты:

Время раздачи: 7 / 24 . . . Не забывайте нажимать на

Реставрация sklad600
[NNM-Club.ru]_Hashestvie2011_Suka4ev.avi.torrent
 Торрент: Платиновая раздача  Зарегистрирован
 
Скачать


Примагнититься
 Зарегистрирован:   17 Июл 2011 14:55:09
 Размер:   492 MB  (
 Рейтинг:   4.3 (Голосов: 20)
 Поблагодарили:   89
 Проверка:   Оформление проверено модератором 17 Июл 2011 19:06:39
Как cкачать  ·  Как раздать  ·  Правильно оформить  ·  Поднять ратио!  
boroda2k7
Релизер
 
Стаж: 17 лет 1 мес.
Сообщений: 832
Ratio: 84.583
Раздал: 43.03 TB
Поблагодарили: 13192
100%
Откуда: Оттуда.
pirates.png
что такое VebRip?

а за релиз спасибо

_________________
Metr_72 ®
Релизер-меломан
Стаж: 17 лет 2 мес.
Сообщений: 2434
Ratio: 13.061
Поблагодарили: 28051
100%
Откуда: Rivne Сельская местность
ukraine.gif
boroda2k7 писал(а): Перейти к сообщению
что такое VebRip?

а за релиз спасибо


ПОЖАЛУЙСТА

А WebRip это очепятка, уже в 5 подряд релизе, только-что замеченая.
А если серйозно - запись трансляции из http://www.nashe.ru/tv/
Показать сообщения:   
Начать новую тему   Ответить на тему    Торрент-трекер NNM-Club -> Театр и Музыкальное видео -> Концерты (SD) Часовой пояс: GMT + 3
Страница 1 из 1