Классический форум-трекер
canvas not supported
Нас вместе: 4 151 326

Стрелок из Спрингфилда / Springfield Rifle (1952) DVDRip


 
 
RSS
Начать новую тему   Ответить на тему    Торрент-трекер NNM-Club -> Классика кино и Старые фильмы до 90-х -> Зарубежная Классика (HD*Rip/LQ, DVDRip, SATRip, VHSRip)
Автор Сообщение
jegan ®
Стаж: 11 лет
Сообщений: 1162
Ratio: 104.871
Раздал: 16.45 TB
Поблагодарили: 149489
100%
Откуда: ни возьмись
russia.gif
Стрелок из Спрингфилда / Springfield Rifle (1952) DVDRip
Русское название: Стрелок из Спрингфилда
Оригинальное название: Springfield Rifle
Год выпуска: 1952
Производство: США, Warner Bros. Pictures
Жанр: Вестерн, Военный

Описание фильма:
США, 1864 год. Союзная армия нуждается в лошадях, чтобы начать наступление против Юга. Офицеры в Форте Хедли в Колорадо, во главе с подполковником Хадсоном, не могут выполнить задачу по перегону лошадей из форта, окруженного горами, на равнину. Несмотря на все предосторожности и секретные тропы, по которым следуют Союзные конники, неизвестные налетчики, сочувствующие Конфедерации Юга, нападают на сопровождение и уводят лошадей. Поскольку налетчики всегда знают, где солдаты и лошади пересекут горный перевал, командование форта подозревает, что шпион Южан находится среди его подчиненных. Отбиться от нападающих при помощи старого оружия невозможно, и руководство форта решает взять на вооружение экспериментальную многозарядную Спрингфилдскую винтовку. Тем временем очередной отряд всадников Союзных войск подвергся нападению южан, но на этот раз майор Алекс Кирни, решив не жертвовать своими солдатами, не стал вступать в бой, он оставил лошадей врагу и вернулся в форт. За этот поступок, Кирни был разжалован и уволен из армии, но на этом история не заканчивается, отставной майор решает лично выяснить кто предатель, раскрывающий планы передвижения войск врагу и ради этой цели, бывший офицер становится членом банды налетчиков.

Релиз группа:
Режиссер: Андре де Тот
Актеры: Гэри Купер, Дэвид Брайан, Пол Келли, Лон Чейни мл., Филип Кэри, Алан Хейл мл., Мартин Милнер

Продолжительность: 01:33:09
Перевод: Профессиональный (многоголосый закадровый)



Видеокодек: Xvid
Битрейт видео: ~1897 Кбит/сек
Размер кадра: 720x544
Качество видео: DVDRip
Аудиокодек: AC3 2.0
Битрейт аудио: 192 Кбит/сек
Общее
Полное имя : Стрелок из Спрингфилда.1952.DVDRip.Generalfilm.avi
Формат : AVI
Формат/Информация : Audio Video Interleave
Размер файла : 1,37 Гбайт
Продолжительность : 1 ч. 33 м.
Общий поток : 2099 Кбит/сек
Программа кодирования : VirtualDubMod 1.5.10.3 | www.virtualdub-fr.org || (build 2550/release)
Библиотека кодирования : VirtualDubMod build 2550/release

Видео
Идентификатор : 0
Формат : MPEG-4 Visual
Профиль формата : Advanced Simple@L5
Параметр BVOP формата : 2
Параметр QPel формата : Нет
Параметр GMC формата : Без точки перехода
Параметр матрицы формата : Default (H.263)
Идентификатор кодека : XVID
Идентификатор кодека/Подсказка : XviD
Продолжительность : 1 ч. 33 м.
Битрейт : 1897 Кбит/сек
Ширина : 720 пикс.
Высота : 544 пикс.
Соотношение сторон : 4:3
Частота кадров : 23,976 кадр/сек
Цветовое пространство : YUV
Подвыборка цветности : 4:2:0
Битовая глубина : 8 бит
Тип развёртки : Прогрессивная
Метод сжатия : С потерями
Бит/(Пиксели*Кадры) : 0.202
Размер потока : 1,23 Гбайт (90%)
Библиотека кодирования : XviD 1.2.1 (UTC 2008-12-04)

Аудио
Идентификатор : 1
Формат : AC-3
Формат/Информация : Audio Coding 3
Расширение режима : CM (complete main)
Идентификатор кодека : 2000
Продолжительность : 1 ч. 33 м.
Вид битрейта : Постоянный
Битрейт : 192 Кбит/сек
Каналы : 2 канала
Расположение каналов : Front: L R
Частота : 48,0 КГц
Битовая глубина : 16 бит
Метод сжатия : С потерями
Размер потока : 128 Мбайт (9%)
Выравнивание : Разделение по промежуткам
Продолжительность промежутка : 42 мс. (1,00 видеокадр)
Время предзагрузки промежутка : 500 ms
Скриншоты:


Время раздачи: с 17:00 до 0:00 будни по МСК, с 9:00 до поздна в выходные
[NNM-Club.ru]_Strelok iz Springfilda.1952.DVDRip.Generalfilm.avi.torrent
 Торрент: Платиновая раздача  Зарегистрирован
 
Скачать


Примагнититься
 Зарегистрирован:   22 Июл 2011 21:34:40
 Размер:   1.37 GB  (
 Рейтинг:   4.6 (Голосов: 10)
 Поблагодарили:   43
 Проверка:   Оформление проверено модератором 23 Июл 2011 02:40:04
Как cкачать  ·  Как раздать  ·  Правильно оформить  ·  Поднять ратио!  
Показать сообщения:   
Начать новую тему   Ответить на тему    Торрент-трекер NNM-Club -> Классика кино и Старые фильмы до 90-х -> Зарубежная Классика (HD*Rip/LQ, DVDRip, SATRip, VHSRip) Часовой пояс: GMT + 3
Страница 1 из 1