Классический форум-трекер
canvas not supported
Нас вместе: 4 114 090

Гарри Поттер и тайная комната / Harry Potter and the Chamber of Secrets (2002) [H.264] BDRip


 
 
RSS
Начать новую тему   Ответить на тему    Торрент-трекер NNM-Club -> Зарубежное кино -> Зарубежные Фильмы (HD*Rip/LQ, DVDRip, SATRip, VHSRip)
Автор Сообщение
Strelok@46 ®
Стаж: 8 лет 10 мес.
Сообщений: 451
Ratio: 133,584
Раздал: 6,709 TB
Поблагодарили: 34878
100%
Откуда: Курская обл.
russia.gif

Слоган: "Зло вернулось в Хогвартс".
Гарри Поттер и тайная комната / Harry Potter and the Chamber of Secrets (2002) BDRip
Русское название: Гарри Поттер и тайная комната
Оригинальное название: Harry Potter and the Chamber of Secrets
Год выпуска: 2002
Жанр: Фэнтези, Детектив, Приключения, Семейный
Страна: Германия, США, Великобритания

Описание фильма:
Гарри Поттер переходит на второй курс Школы чародейства и волшебства Хогвартс. Эльф Добби предупреждает Гарри об опасности, которая поджидает его там, и просит больше не возвращаться в школу.

Юный волшебник не следует совету эльфа и становится свидетелем таинственных событий, разворачивающихся в Хогвартсе. Вскоре Гарри и его друзья узнают о существовании Тайной Комнаты и сталкиваются с новыми приключениями, пытаясь победить темные силы.

Режиссер: Крис Коламбус.
Сценарий: Дж.К. Роулинг, Стивен Кловс.
Продюсеры:Майкл Барнатан, Дэвид Барон, Крис Коламбус, Паула ДюПре Песман, Дэвид Хейман, Марк Рэдклифф, Таня Сегачан.
Оператор: Роджер Прэтт.
Художник: Стюарт Крэйг.
Композитор: Уильям Росс, Джон Уильямс.
Монтаж: Питер Хонесс.
Костюмы: Линди Хемминг.
Актеры: Дэниэл Рэдклифф, Руперт Гринт, Эмма Уотсон, Ричард Гриффитс, Фиона Шоу, Гарри Меллинг, Тоби Джонс, Джим Нортон, Вероника Клиффорд, Джеймс Фелпс, Оливер Фелпс, Джули Уолтерс, Бонни Райт, Марк Уильямс, Крис Ранкин, Том Фелтон, Джейсон Айзекс, Эдвард Тадор-Поул, Дженни Таррен, Робби Колтрейн ...

Продолжительность: 02.40.00
Перевод: Дублированный (Лицензия)



Бюджет: 100 000 000$.
Кассовые сборы в мире:614 700 000$.
Кассовые сборы в США:261 988 482$.
Кассовые сборы в России:8 000 000$.
Рейтинг MPAA: PG (Рекомендуется присутствие родителей).
Официальный сайт: Открыть
Официальный русский сайт: Открыть

Дата мировой премьеры: 03.11.2002
Дата российской премьеры: 26.12.2002
Дата выхода DVD релиза: 23.06.2009

Видеокодек: AVC
Битрейт видео: ~840kb/s
Размер кадра: 720x304
Качество видео: BDRip
Аудиокодек: MP3 (2 какнала)
Битрейт аудио: 128kb/s
Общее
Уникальный идентификатор : 250010100974319780650519509345381061416 (0xBC1631A91A9E2324AD501D63E7571328)
Полное имя : D:\Мои видеозаписи\Фильмачки\Гарри Поттер\(Антология)\Гарри Поттер и тайная комната [Harry.Potter.And.The.Chamber.Of.Secret.D.2002.mkv
Формат : Matroska
Версия формата : Version 2
Размер файла : 1,09 Гбайт
Продолжительность : 2 ч. 40 м.
Общий поток : 969 Кбит/сек
Дата кодирования : UTC 2009-12-01 05:30:30
Программа кодирования : mkvmerge v2.9.7 ('Tenderness') built on Jul 1 2009 18:43:35
Библиотека кодирования : libebml v0.7.7 + libmatroska v0.8.1

Видео
Идентификатор : 1
Формат : AVC
Формат/Информация : Advanced Video Codec
Профиль формата : High@L3.1
Параметр CABAC формата : Да
Параметр ReFrames формата : 16 кадров
Идентификатор кодека : V_MPEG4/ISO/AVC
Продолжительность : 2 ч. 40 м.
Битрейт : 840 Кбит/сек
Ширина : 720 пикс.
Высота : 304 пикс.
Соотношение сторон : 2,35:1
Частота кадров : 23,976 кадр/сек
Цветовое пространство : YUV
Подвыборка цветности : 4:2:0
Битовая глубина : 8 бит
Тип развёртки : Прогрессивная
Бит/(Пиксели*Кадры) : 0.160
Размер потока : 946 Мбайт (85%)
Заголовок : Гарри Поттер и тайная комната [Harry.Potter.And.The.Chamber.Of.Secret.D.2002.RP4] by Doctor Alcohol
Библиотека кодирования : x264 core 68 r1183M f21daff
Настройки программы : cabac=1 / ref=16 / deblock=1:-1:-1 / analyse=0x3:0x133 / me=tesa / subme=9 / psy_rd=1.0:0.0 / mixed_ref=1 / me_range=32 / chroma_me=1 / trellis=2 / 8x8dct=1 / cqm=0 / deadzone=21,11 / chroma_qp_offset=-4 / threads=3 / nr=0 / decimate=0 / mbaff=0 / bframes=4 / b_pyramid=1 / b_adapt=2 / b_bias=0 / direct=3 / wpredb=1 / keyint=250 / keyint_min=25 / scenecut=40 / rc=2pass / bitrate=840 / ratetol=1.0 / qcomp=0.60 / qpmin=10 / qpmax=51 / qpstep=4 / cplxblur=20.0 / qblur=0.5 / ip_ratio=1.40 / pb_ratio=1.30 / aq=1:1.00 / zones=218537,231604,q=40
Язык : English

Аудио
Идентификатор : 2
Формат : MPEG Audio
Версия формата : Version 1
Профиль формата : Layer 3
Режим : Joint stereo
Расширение режима : MS Stereo
Идентификатор кодека : A_MPEG/L3
Идентификатор кодека/Подсказка : MP3
Продолжительность : 2 ч. 40 м.
Вид битрейта : Переменный
Битрейт : 128 Кбит/сек
Номинальный битрейт : 135 Кбит/сек
Каналы : 2 канала
Частота : 48,0 КГц
Метод сжатия : С потерями
Размер потока : 147 Мбайт (13%)
Заголовок : Гарри Поттер и тайная комната [Harry.Potter.And.The.Chamber.Of.Secret.D.2002.RP4] by Doctor Alcohol
Библиотека кодирования : LAME3.98r
Настройки программы : -m j -V 4 -q 3 -lowpass 17 --abr 135
Язык : Russian
Скриншоты:


Время раздачи: 24/7
[NNM-Club.ru]_Garri Potter i taynaya komnata [Harry.Potter.And.The.Chamber.Of.Secret.D.2002.mkv.torrent
 Торрент: Платиновая раздача  Зарегистрирован
 
Скачать


Примагнититься
 Зарегистрирован:   11 Авг 2011 08:43:32
 Размер:   1,09 GB  (
 Рейтинг:   4,8 (Голосов: 97)
 Поблагодарили:   357
 Проверка:   Оформление проверено модератором 12 Авг 2011 10:54:33
Как cкачать  ·  Как раздать  ·  Правильно оформить  ·  Поднять ратио!  
ka4ek92
Стаж: 9 лет 7 мес.
Сообщений: 815
Ratio: 2,839
100%
помойму лучшая часть
SergeFSW
Стаж: 11 лет 1 мес.
Сообщений: 367
Ratio: 1,613
100%
russia.gif
Во, новинка!
Lazyra
RG Music
Модератор музыки Electronic
 
Стаж: 9 лет 2 мес.
Сообщений: 4905
Ratio: 1940,822
Раздал: 67,39 TB
Поблагодарили: 109475
100%
Откуда: Владимир
russia.gif
спс

_________________
Нет раздачи , пиши ЛС
SpAuN_x7
Стаж: 8 лет 3 мес.
Сообщений: 13
Ratio: 7,724
100%
Откуда: Козьмодемьянск
russia.gif
спасибо =)
Показать сообщения:   
Начать новую тему   Ответить на тему    Торрент-трекер NNM-Club -> Зарубежное кино -> Зарубежные Фильмы (HD*Rip/LQ, DVDRip, SATRip, VHSRip) Часовой пояс: GMT + 3
Страница 1 из 1