Классический форум-трекер
canvas not supported
Нас вместе: 4 165 147

Пираты Силиконовой долины (Пираты Кремниевой долины) / Pirates Of Silicon Valley (1999) DVDRip


 
 
RSS
Начать новую тему   Ответить на тему    Торрент-трекер NNM-Club -> Зарубежное кино -> Зарубежные Фильмы (SD)
Автор Сообщение
Winchesterst ®
Стаж: 10 лет 5 мес.
Сообщений: 544
Ratio: 16.179
Раздал: 7.838 TB
Поблагодарили: 12811
100%
Откуда: Одесса
Пираты Силиконовой долины (Пираты Кремниевой долины) / Pirates Of Silicon Valley (1999) DVDRip
Русское название: Пираты Силиконовой долины (Пираты Кремниевой долины)
Оригинальное название: Pirates Of Silicon Valley
Год выпуска: 1999
Жанр: Драма

Описание фильма:
Фильм рассказывет о создании и развитии двух крупнейших современных IT-компаний - Apple и Microsoft.
В начале 70-х Стив Джобс с группой единомышленников начал собирать в гараже первые персональные компьютеры. Дела у ребят шли неважно, пока не появились заинтересованные спонсоры, а успех на компьютерной выставке в одночасье озолотил Apple.
В это же время президент крошечной компании Microsoft Билл Гейтс сумел заключить договор на комплектацию компьютеров IBM своей операционной системой. Проблема состояла в том, что у Microsoft не было никакой операционной системы и ее срочно пришлось покупать у малознакомого талантливого программиста.
И Apple, и Microsoft нахально использовали разработки других компаний, но решающим стало похищение идеи графического интерфейса для компьютеров Макинтош пронырливым Биллом Гейтсом...

Режиссер: Мартин Берк
Актеры: Ной Вайл / Noah Wyle, Джой Слотник / Joey Slotnick, Энтони Майкл Холл / Anthony Michael Hall, Джон Ди Маджио / John Di Maggio, Джош Хопкинс / Josh Hopkins

Продолжительность: 01:36:45
Перевод: Многоголосый закадровый
Озвучание: Студия "Кравец".
Релиз группа: LostFilm

Дата мировой премьеры: 20 июня 1999

Видеокодек: Xvid
Битрейт видео: ~1 824 Kbps
Размер кадра: 720 x 480
Качество видео: DVDRip
Аудиокодек: MP3
Битрейт аудио: 192 Kbps
General
Complete name : D:\Фильмы\Pirates.Of.Silicon.Valley.rus.avi
Format : AVI
Format/Info : Audio Video Interleave
File size : 1.37 GiB
Duration : 1h 36mn
Overall bit rate mode : Variable
Overall bit rate : 2 024 Kbps
Writing application : Nandub v1.0rc2
Writing library : Nandub build 1853/release

Video
ID : 0
Format : MPEG-4 Visual
Format profile : Simple@L3
Format settings, BVOP : No
Format settings, QPel : No
Format settings, GMC : No warppoints
Format settings, Matrix : Default (H.263)
Codec ID : XVID
Codec ID/Hint : XviD
Duration : 1h 36mn
Bit rate : 1 824 Kbps
Width : 720 pixels
Height : 480 pixels
Display aspect ratio : 4:3
Frame rate : 23.976 fps
Standard : NTSC
Color space : YUV
Chroma subsampling : 4:2:0
Bit depth : 8 bits
Scan type : Progressive
Compression mode : Lossy
Bits/(Pixel*Frame) : 0.220
Stream size : 1.23 GiB (90%)
Writing library : XviD 1.2.1 (UTC 2008-12-04)

Audio
ID : 1
Format : MPEG Audio
Format version : Version 1
Format profile : Layer 3
Mode : Joint stereo
Mode extension : MS Stereo
Codec ID : 55
Codec ID/Hint : MP3
Duration : 1h 36mn
Bit rate mode : Variable
Bit rate : 192 Kbps
Channel(s) : 2 channels
Sampling rate : 48.0 KHz
Compression mode : Lossy
Stream size : 129 MiB (9%)
Alignment : Aligned on interleaves
Interleave, duration : 24 ms (0.58 video frame)
Interleave, preload duration : 489 ms
Writing library : LAME3.97b
Encoding settings : -m j -V 4 -q 3 -lowpass 18.6 --abr 192


Скриншоты:

Время раздачи: 24/7
[NNM-Club.ru]_Pirates.Of.Silicon.Valley.rus.avi.torrent
 Торрент: Платиновая раздача  Зарегистрирован
 
Скачать


Примагнититься
 Зарегистрирован:   09 Окт 2011 09:46:04
 Размер:   1.37 GB  (
 Рейтинг:   4.8 (Голосов: 105)
 Поблагодарили:   423
 Проверка:   Оформление проверено модератором 10 Окт 2011 17:49:02
Как cкачать  ·  Как раздать  ·  Правильно оформить  ·  Поднять ратио!  
Winchesterst ®
Стаж: 10 лет 5 мес.
Сообщений: 544
Ratio: 16.179
Раздал: 7.838 TB
Поблагодарили: 12811
100%
Откуда: Одесса
Спасибо студии "Кравец" за отличный перевод великого фильма.
batonchik
Куратор Видео
RG Releasers
Котоаплоадер 9000+
Стаж: 13 лет 7 мес.
Сообщений: 25886
Ratio: 95K
Раздал: 9.9642 PB
Поблагодарили: 1404845
100%
Откуда: СССР
ussr.gif
Winchesterst
Убираем с обложки ссылку на сторонний ресурс.
ctahok22
Стаж: 11 лет 8 мес.
Сообщений: 19
Ratio: 4.282
100%
Свой перевод на днях сделал ЛостФильм
Winchesterst ®
Стаж: 10 лет 5 мес.
Сообщений: 544
Ratio: 16.179
Раздал: 7.838 TB
Поблагодарили: 12811
100%
Откуда: Одесса
ctahok22
Точно, это они и есть.
asistent55555
 
Стаж: 10 лет 3 мес.
Сообщений: 1094
Ratio: 90.503
Поблагодарили: 49260
100%
witch.png
большое спасибо,фильм супер
Lens Wile Scan
Стаж: 15 лет
Сообщений: 122
Ratio: 19.902
Поблагодарили: 238
100%
Откуда: Moscow
russia.gif
Спасибо. Памяти Стива Джобса. Я хоть и не его фанат, но всегда жалко когда кто-то умирает

_________________
It`s good to be a beermaker
rshooter
Стаж: 10 лет 10 мес.
Сообщений: 51
Ratio: 56.707
100%
russia.gif
Lens Wile Scan писал(а): Перейти к сообщению
Спасибо. Памяти Стива Джобса. Я хоть и не его фанат, но всегда жалко когда кто-то умирает


Гейтса не жалко. Пусть его..
KIM___98
Стаж: 9 лет 10 мес.
Сообщений: 5
Ratio: 1.458
Поблагодарили: 1
100%
rshooter писал(а): Перейти к сообщению
Lens Wile Scan писал(а): Перейти к сообщению
Спасибо. Памяти Стива Джобса. Я хоть и не его фанат, но всегда жалко когда кто-то умирает


Гейтса не жалко. Пусть его..

В рот тебе ноги за такие слова! Билл на равне с Джобсом менял мир!
igreks
Стаж: 12 лет 2 мес.
Сообщений: 106
Ratio: 1.201
100%
russia.gif
ндааа... любой бедный китаец , имея хотя бы "виниловый диск" - сможет установить хрюшу !!??а вот мака.. с его его железом (25ооо рус доллар , скромненький... ну самый дешовый..) чёй то неохота... ну и хай теперь Била нашего Гейтса...
Prezervativ77
Стаж: 9 лет 10 мес.
Сообщений: 165
Ratio: 125.09
Раздал: 44.63 TB
100%
Откуда: СССР
ussr.gif
igreks
MacOS адекватные люди не устанавливают, а покупают комп с уже установленной системой.
KGV123
Стаж: 9 лет 1 мес.
Сообщений: 371
Ratio: 67.129
Поблагодарили: 2354
100%
Т.е. когда ты пихаешь МакОС в виртуалку под виндой для своих нужд, или льеш на комп - то ты неадекватный человек?
А тот кто покупает комп с установленной операционнокой - адекватный?
Странное умозаключение. Ну похоже вы "адекватный человек". И нам редким "неадекватам" вас не понять.
Показать сообщения:   
Начать новую тему   Ответить на тему    Торрент-трекер NNM-Club -> Зарубежное кино -> Зарубежные Фильмы (SD) Часовой пояс: GMT + 3
Страница 1 из 1