Классический форум-трекер
canvas not supported
Нас вместе: 4 231 859

NG: Суперсооружения: Мегазаводы. Феррари Фиорано 599 / MegaStructures. Megafactories: Ferrari Fiorano 599 (2009) HDTVRip [H.264/720p]


 
 
RSS
Начать новую тему   Ответить на тему    Торрент-трекер NNM-Club -> Архив торрентов -> Архив Документалистики и TV
Автор Сообщение
Blaidrg ®
Стаж: 12 лет 11 мес.
Сообщений: 167
Ratio: 83.16
Поблагодарили: 6990
100%
russia.gif
NG: Суперсооружения: Мегазаводы. Феррари Фиорано 599 / MegaStructures. Megafactories: Ferrari Fiorano 599 (2009) HDTVRip [H.264/720p]
Русское название: NG: Суперсооружения: Мегазаводы. Феррари Фиорано 599
Оригинальное название: MegaStructures. Megafactories: Ferrari Fiorano 599
Режиссер / Телекомпания: National Geographic Channel
Год выпуска: 2009
Жанр: Документальный

Описание:
"Феррaри" – самое известное имя в истoрии автoмобилестрoения, покрывшее ceбя славoй как нa обычных дорoгах, так и нa гоночных трaссах. Модель "Fiorano 599" – автoмобиль, в котoрoм сочетается мощь гоночного болида и рoскошь спортивного купе. Вам представится уникальный шанс оказаться в святилище, где рoждается легенда..

Продолжительность: 50:33

Перевод: Одноголосый закадровый, профессиональный

Видеокодек: MPEG-4 AVC/H.264
Битрейт видео: ~5 546 Kbps
Размер кадра: 1280х720
Качество видео: HDTVRip [720p]
Общий битрейт: 6 381 Kbps
Видео: AVC, 1280x720 (16:9), 23.976 fps, 5 546 Kbps (0.251 bit/pixel)
Аудио #1: AC-3, 48.0 KHz, 2 ch, 192 Kbps, CBR (Russian)
Аудио #2: AC-3, 48.0 KHz, 6 ch, 640 Kbps, CBR (English)
Ultimate Factories Ferrari.mkv
General
Complete name : Ultimate Factories Ferrari.mkv
Format : Matroska
File size : 2.25 GiB
Duration : 50mn 33s
Overall bit rate : 6 381 Kbps
Movie name : Ultimate.Factories-Ferrari.720p.BluRay.x264-BlueWhite by XhmikosR
Encoded date : UTC 2011-05-15 16:31:21
Writing application : mkvmerge v4.4.0 ('Die Wiederkehr') built on Oct 31 2010 21:52:48
Writing library : libebml v1.0.0 + libmatroska v1.0.0
Video #1
ID : 1
Format : AVC
Format/Info : Advanced Video Codec
Format profile : High@L4.1
Format settings, CABAC : Yes
Format settings, ReFrames : 6 frames
Muxing mode : Container profile=Unknown@4.1
Codec ID : V_MPEG4/ISO/AVC
Duration : 50mn 33s
Bit rate : 5 546 Kbps
Width : 1 280 pixels
Height : 720 pixels
Display aspect ratio : 16:9
Frame rate : 23.976 fps
Color space : YUV
Chroma subsampling : 4:2:0
Bit depth : 8 bits
Scan type : Progressive
Bits/(Pixel*Frame) : 0.251
Stream size : 1.91 GiB (85%)
Writing library : x264 core 59 r839M 27c3071
Encoding settings : cabac=1 / ref=6 / deblock=1:-2:-2 / analyse=0x3:0x113 / me=umh / subme=7 / me-prepass=0 / brdo=1 / mixed_ref=1 / me_range=32 / chroma_me=1 / trellis=1 / 8x8dct=1 / cqm=0 / deadzone=21,11 / chroma_qp_offset=0 / threads=6 / nr=0 / decimate=1 / mbaff=0 / fgo=0 / bframes=3 / b_pyramid=1 / b_adapt=1 / b_bias=0 / direct=3 / wpredb=1 / bime=1 / keyint=240 / keyint_min=24 / scenecut=40(pre) / rc=2pass / bitrate=5546 / ratetol=1.0 / rceq='blurCplx^(1-qComp)' / qcomp=1.00 / qpmin=10 / qpmax=51 / qpstep=4 / cplxblur=20.0 / qblur=0.5 / ip_ratio=1.40 / pb_ratio=1.30 / aq=2:1.00
Language : English
Audio #2
ID : 2
Format : AC-3
Format/Info : Audio Coding 3
Mode extension : CM (complete main)
Codec ID : A_AC3
Duration : 50mn 33s
Bit rate mode : Constant
Bit rate : 192 Kbps
Channel(s) : 2 channels
Channel positions : Front: L R
Sampling rate : 48.0 KHz
Bit depth : 16 bits
Stream size : 69.4 MiB (3%)
Language : Russian
Audio #3
ID : 3
Format : AC-3
Format/Info : Audio Coding 3
Mode extension : CM (complete main)
Codec ID : A_AC3
Duration : 50mn 33s
Bit rate mode : Constant
Bit rate : 640 Kbps
Channel(s) : 6 channels
Channel positions : Front: L C R, Side: L R, LFE
Sampling rate : 48.0 KHz
Bit depth : 16 bits
Stream size : 231 MiB (10%)
Language : English

[National Geographic+Discovery+EXPLORER] Мегаструктуры / Суперсооружения / MegaStructures HD 720p

Скриншоты:


Время раздачи: 24/7 - круглосуточно до 10 скачавших
[NNM-Club.ru]_Ultimate Factories Ferrari.torrent
 Торрент: Платиновая раздача  Зарегистрирован
 
Скачать


Примагнититься
 Зарегистрирован:   06 Дек 2011 00:40:03
 Размер:   2.25 GB  (
 Рейтинг:   4.9 (Голосов: 23)
 Поблагодарили:   73
 Проверка:   Оформление проверено модератором 06 Дек 2011 08:59:39
Как cкачать  ·  Как раздать  ·  Правильно оформить  ·  Поднять ратио!  
Blaidrg ®
Стаж: 12 лет 11 мес.
Сообщений: 167
Ratio: 83.16
Поблагодарили: 6990
100%
russia.gif
NG: Суперсооружения: Мегазаводы. Ауди / MegaStructures. Megafactories: Audi (2009) HDTVRip [720p]
Топик был перенесен из форума Мега-Проекты в форум Архив Документалистики и TV

Причина переноса: Нет сида больше месяца.
svlesin
Показать сообщения:   
Начать новую тему   Ответить на тему    Торрент-трекер NNM-Club -> Архив торрентов -> Архив Документалистики и TV Часовой пояс: GMT + 3
Страница 1 из 1