Классический форум-трекер
canvas not supported
Нас вместе: 4 232 837

Последнее лето детства (1974) DVD5 (1-3 серии из 3)


 
 
RSS
Начать новую тему   Ответить на тему    Торрент-трекер NNM-Club -> Архив торрентов -> Архив Видео. Кино, Театра
Автор Сообщение
rostik973 ®
Стаж: 14 лет 4 мес.
Сообщений: 801
Ratio: 30.912
Поблагодарили: 51761
100%
Откуда: Киев
ukraine.gif
Последнее лето детства (1974) DVD5 (1-3 серии из 3)
Русское название: Последнее лето детства
Год выпуска: 1977
Жанр: Приключения, Детский
Фильм не реставрирован
Описание фильма:
Действие происходит в Москве в 1927 году во времена нэпа. Трое главных героев Миша, Генка и Слава выросли и стали комсомольцами. Они участвуют в разоблачении банды, которая занималась хищениями мануфактуры, и спасают нескольких беспризорников от вовлечения в преступную деятельность.
«Последнее лето детства» — трёхсерийный художественный телевизионный фильм, снятый в 1974 году по роману Анатолия Рыбакова «Выстрел» режиссёром Валерием Рубинчиком. Фактически киносценарий был опубликован раньше, а затем переработан в роман. Заключительная часть приключенческой трилогии Кортик, Бронзовая птица, Последнее лето детства.

Режиссер: Валерий Рубинчик
Актеры: Владимир Антоник, Евгений Евстигнеев, Вячеслав Молоков, Сергей Беляк, Александр Катько, Олег Грачев, Людмила Куцелай, Александр Жданов, Леонид Белозорович, Николай Денисов, Владимир Лосев, Александр Вокач, Зоя Осмоловская, Ирина Борисова, Владимир Герасимов, Юрий Сидоров, Вадим Ганшин, Геннадий Овсянников, Виктор Лебедев, Вера Кавалерова, Анатолий Чарноцкий, Георгий Штиль, Валентина Ананьина, Рогволд Суховерко

Продолжительность: 03:13:51



Видеокодек: MPEG-2
Битрейт видео: ~2831kb/s
Размер кадра: PAL 4:3 (720x576) VBR
Качество видео: DVD5
Аудиокодек: AC3 2.0
Битрейт аудио: 224kb/s VBR
Title: Локальный диск
Size: 4.36 Gb ( 4 571 622 KBytes ) - DVD-5
Enabled regions: 1, 2, 3, 4, 5, 6, 7, 8

VTS_01 :
Play Length: 02:10:23+01:03:28
Video: PAL 4:3 (720x576) VBR
Audio:
Russian (Dolby AC3, 2 ch)
Общее
Полное имя : D:\Фильмы\leto\VIDEO_TS\VTS_01_1.VOB
Формат : MPEG-PS
Размер файла : 1024 Мбайт
Продолжительность : 45 м.
Режим общего битрейта : Переменный
Общий поток : 3118 Кбит/сек

Видео
Идентификатор : 224 (0xE0)
Формат : MPEG Video
Версия формата : Version 2
Профиль формата : Main@Main
Параметр BVOP формата : Да
Параметр матрицы формата : Выборочная
Продолжительность : 45 м.
Вид битрейта : Переменный
Битрейт : 2831 Кбит/сек
Максимальный битрейт : 7152 Кбит/сек
Ширина : 720 пикселей
Высота : 576 пикселей
Соотношение сторон : 4:3
Частота кадров : 25,000 кадров/сек
Стандарт вещания : PAL
Цветовое пространство : YUV
Субдискретизация насыщенности : 4:2:0
Битовая глубина : 8 бит
Тип развёртки : Чересстрочная
Порядок развёртки : Нижнее поле первое
Метод сжатия : С потерями
Бит/(Пиксели*Кадры) : 0.273
Размер потока : 930 Мбайт (91%)

Аудио
Идентификатор : 189 (0xBD)-128 (0x80)
Формат : AC-3
Формат/Информация : Audio Coding 3
Расширение режима : CM (complete main)
Режим смешивания : DVD-Video
Продолжительность : 45 м.
Вид битрейта : Постоянный
Битрейт : 224 Кбит/сек
Каналы : 2 канала
Расположение каналов : Front: L R
Частота : 48,0 КГц
Битовая глубина : 16 бит
Метод сжатия : С потерями
Размер потока : 73,6 Мбайт (7%)

Меню
-нет
Скриншоты:




Время раздачи: С 16:00 до 23:30
[NNM-Club.ru]_leto.torrent
 Торрент: Платиновая раздача  Зарегистрирован
 
Скачать


Примагнититься
 Зарегистрирован:   11 Дек 2011 22:29:24
 Размер:   4.36 GB  (
 Рейтинг:   5 (Голосов: 30)
 Поблагодарили:   104
 Проверка:   Оформление проверено модератором 11 Дек 2011 23:48:40
Как cкачать  ·  Как раздать  ·  Правильно оформить  ·  Поднять ратио!  
rostik973 ®
Стаж: 14 лет 4 мес.
Сообщений: 801
Ratio: 30.912
Поблагодарили: 51761
100%
Откуда: Киев
ukraine.gif
Кортик (1973) DVD5(1-3 серии из 3) продолжение
Бронзовая птица (1974) DVD5(1-3 серии из 3)продолжение
aleXXXpank2010
Стаж: 13 лет 11 мес.
Сообщений: 622
Ratio: 0.981
7.26%
ussr.gif
Ещё в детстве, после "Кортика" и "Бронзовой птицы" он мне не понравился. Не было загадки в духе предыдущих серий. Помню был жутко разочарован))))
Топик был перенесен из форума Отечественные Фильмы для детей в форум Архив Видео

Причина переноса: Длительное отсутствие сида на протяжении более 6 месяцев.

Исправил релиз - напиши ЛС almikl, дав ссылку на релиз.
Если нет ответа 24 часа - нажми на кнопку "Обратить внимание модераторов".
Показать сообщения:   
Начать новую тему   Ответить на тему    Торрент-трекер NNM-Club -> Архив торрентов -> Архив Видео. Кино, Театра Часовой пояс: GMT + 3
Страница 1 из 1