Классический форум-трекер
canvas not supported
Нас вместе: 4 172 086

"Диалоги о рыбалке 7 в 1" DVDRip 4 (2005)


 
 
RSS
Начать новую тему   Ответить на тему    Торрент-трекер NNM-Club -> Спорт и активный отдых -> Рыбалка и Охота
Автор Сообщение
occlusion ®
Стаж: 14 лет 7 мес.
Сообщений: 250
Ratio: 7.375
Поблагодарили: 9635
100%
Откуда: Moscow
ussr.gif
"Диалоги о рыбалке 7 в 1" DVDRip 4 (2005)
Жанр: рыбалка
Ведущие: Иван Затевахин, Алексей Цессарский

Описание фильма:
В этот диск вошли следующие 7 фильмов:
    · Щука
    · Окунь
    · Карась
    · Лещ: Глухая оснастка
    · Пиленгас
    · Камчатка: Бычок
    · Советы рыбака


ВНИМАНИЕ! Фильмы на разных DVD повторяются!

Продолжительность: 2:59:19
Видеокодек: DivX 5
Битрейт видео: 855 кб/с
Размер кадра: 640x480
Качество видео: TVRip
Аудиокодек: AC3
Битрейт аудио: 192 кб/с
Перевод: Оригинальный
Код: выделить все
Общее
Полное имя                               : Dialogi_o_ribalke_4 dvdrip\Камчатка Бычок.avi
Формат                                   : AVI
Формат/Информация                        : Audio Video Interleave
Размер файла                             : 157 Мбайт
Продолжительность                        : 25 м. 39 с.
Общий поток                              : 854 Кбит/сек
Библиотека кодирования                   : VirtualDub-MPEG2 build 24448/release

Видео
Идентификатор                            : 0
Формат                                   : MPEG-4 Visual
Настройки формата                        : BVOP1
Параметр BVOP формата                    : 1
Параметр QPel формата                    : Нет
Параметр GMC формата                     : Без точки перехода
Параметр матрицы формата                 : Default (H.263)
Режим смешивания                         : Сжатый битовый поток
Идентификатор кодека                     : DX50
Идентификатор кодека/Подсказка           : DivX 5
Продолжительность                        : 25 м. 39 с.
Битрейт                                  : 651 Кбит/сек
Номинальный битрейт                      : 4854 Кбит/сек
Ширина                                   : 640 пикселей
Высота                                   : 480 пикселей
Соотношение сторон                       : 4:3
Частота кадров                           : 29,970 (30000/1001) кадров/сек
Цветовое пространство                    : YUV
Субдискретизация насыщенности            : 4:2:0
Битовая глубина                          : 8 бит
Тип развёртки                            : Прогрессивная
Метод сжатия                             : С потерями
Бит/(Пиксели*Кадры)                      : 0.071
Размер потока                            : 119 Мбайт (76%)
Библиотека кодирования                   : DivX 6.2.2 (UTC 2006-04-26)

Аудио
Идентификатор                            : 1
Формат                                   : AC-3
Формат/Информация                        : Audio Coding 3
Коммерческое название                    : Dolby Digital
Идентификатор кодека                     : 2000
Продолжительность                        : 25 м. 39 с.
Вид битрейта                             : Постоянный
Битрейт                                  : 192 Кбит/сек
Каналы                                   : 2 канала
ChannelLayout                            : L R
Частота                                  : 48,0 КГц
Частота кадров                           : 31,250 кадров/сек (1536 SPF)
Битовая глубина                          : 16 бит
Метод сжатия                             : С потерями
Размер потока                            : 35,2 Мбайт (22%)
Выравнивание                             : Соединение по промежуткам
Продолжительность промежутка             : 33  мс. (1,00 видеокадр)
Время предзагрузки промежутка            : 512  мс.
ServiceKind/String                       : Complete Main
Скриншоты:

Время раздачи: 27/7
[NNMClub.to]_Dialogi_o_ribalke_4 dvdrip.torrent
 Торрент: Платиновая раздача  Зарегистрирован
 
Скачать


Примагнититься
 Зарегистрирован:   30 Окт 2019 10:38:46
 Размер:   1.07 GB  (
 Рейтинг:   4.7 (Голосов: 30)
 Поблагодарили:   97
 Проверка:   Оформление проверено модератором 30 Окт 2019 13:20:53
Как cкачать  ·  Как раздать  ·  Правильно оформить  ·  Поднять ратио!  
Macho34
Гость
зачем писать DVDRip , если на скринах видно что писалось с канала 7ТВ ? Раздающий , за дибилов дершишь народ или просто похренестически к делу относишся ?
occlusion ®
Стаж: 14 лет 7 мес.
Сообщений: 250
Ratio: 7.375
Поблагодарили: 9635
100%
Откуда: Moscow
ussr.gif
А ты чего распсиховался, качество видео разве не видишь - написано TVRip.
Все ДВД в продаже у них с "телевизионным" качеством, разберись в теме, для начала!
vikgold
Uploader 1000+
 
Стаж: 13 лет 2 мес.
Сообщений: 71
Ratio: 1602.647
Поблагодарили: 3
100%
ussr.gif
Дайте скачать. Пожалуйста.
vikgold
Uploader 1000+
 
Стаж: 13 лет 2 мес.
Сообщений: 71
Ratio: 1602.647
Поблагодарили: 3
100%
ussr.gif
Скачал таки.
NorthOn
 
Админ
Стаж: 15 лет 4 мес.
Сообщений: 14928
Ratio: 928.673
Поблагодарили: 14606
100%
nnm-club.gif
Торрент обновлен в рамках акции Включаем DHT в древних раздачах
Теперь вам нужно его скачать и открыть в торрент-клиенте, указав в качестве места сохранения раздаваемый файл или папку.

_________________
Либо я найду путь, либо проложу его...
Показать сообщения:   
Начать новую тему   Ответить на тему    Торрент-трекер NNM-Club -> Спорт и активный отдых -> Рыбалка и Охота Часовой пояс: GMT + 3
Страница 1 из 1