Классический форум-трекер
canvas not supported
Нас вместе: 4 210 919

Заражение / Contagion (2011) HDRip


 
 
RSS
Начать новую тему   Ответить на тему    Торрент-трекер NNM-Club -> Зарубежное кино -> Зарубежные Фильмы (SD)
Автор Сообщение
_MysTeRy_ ®
Блондинка в шоколаде
Стаж: 11 лет 9 мес.
Сообщений: 1728
Ratio: 161.029
Раздал: 34.14 TB
Поблагодарили: 225535
100%
logo.gif
Заражение / Contagion (2011) HDRip
«Скоро мир будет инфицирован.»

Русское название: Заражение
Оригинальное название: Contagion
Год выпуска: 2011
Производство: США / Warner Bros. Pictures
Жанр: Триллер, Драма
Перевод: Дублированный [лицензия]
Субтитры: Отсутствуют

Дата мировой премьеры: 3 сентября 2011
Дата российской премьеры: 13 октября 2011, «Каро-Премьер»
Дата выхода DVD релиза: 26 января 2012, «CP-Digital»

Режиссер: Стивен Содерберг
Актеры: Мэтт Дэймон, Марион Котийяр, Джуд Лоу, Гвинет Пэлтроу, Кейт Уинслет, Дженнифер Эль, Лоренс Фишбёрн, Брайан Крэнстон, Джон Хоукс, Санаа Лэтэн

Описание фильма:
Международная организация врачей совместно с Центром по контролю и профилактике заболеваний США пытается помешать распространению смертельного вируса.




Продолжительность: 01:46:25
Качество видео: HDRip

Видеокодек: Xvid
Битрейт видео: ~1849 Кбит/сек
Размер кадра: 720x400
Аудио #1: Русский (Dolby AC3, 6 ch) 448 Кбит/сек
Аудио #2: Английский (Dolby AC3, 6 ch) 448 Кбит/сек
Общее
Полное имя : H:\Zarajenie.2011.D.HDRip.2100Mb_nnm-club.me.avi
Формат : AVI
Формат/Информация : Audio Video Interleave
Размер файла : 1,99 Гбайт
Продолжительность : 1 ч. 46 м.
Общий поток : 2681 Кбит/сек
Программа кодирования : VirtualDubMod 1.5.10.2 (build 2540/release)
Библиотека кодирования : VirtualDubMod build 2540/release

Видео
Идентификатор : 0
Формат : MPEG-4 Visual
Профиль формата : Advanced Simple@L5
Параметр BVOP формата : 4
Параметр QPel формата : Нет
Параметр GMC формата : Без точки перехода
Параметр матрицы формата : Default (H.263)
Идентификатор кодека : XVID
Идентификатор кодека/Подсказка : XviD
Продолжительность : 1 ч. 46 м.
Битрейт : 1849 Кбит/сек
Ширина : 720 пикселей
Высота : 400 пикселей
Соотношение сторон : 16:9
Частота кадров : 23,976 кадра/сек
Цветовое пространство : YUV
Субдискретизация насыщенности : 4:2:0
Битовая глубина : 8 бит
Тип развёртки : Прогрессивная
Метод сжатия : С потерями
Бит/(Пиксели*Кадры) : 0.257
Размер потока : 1,32 Гбайт (66%)
Библиотека кодирования : XviD 1.2.1 (UTC 2008-12-04)

Аудио #1
Идентификатор : 1
Формат : AC-3
Формат/Информация : Audio Coding 3
Расширение режима : CM (complete main)
Идентификатор кодека : 2000
Продолжительность : 1 ч. 46 м.
Вид битрейта : Постоянный
Битрейт : 448 Кбит/сек
Каналы : 6 каналов
Расположение каналов : Front: L C R, Side: L R, LFE
Частота : 48,0 КГц
Битовая глубина : 16 бит
Метод сжатия : С потерями
Размер потока : 341 Мбайт (17%)
Выравнивание : Разделение по промежуткам
Продолжительность промежутка : 42 мс. (1,00 видеокадр)
Время предзагрузки промежутка : 500 мс.

Аудио #2
Идентификатор : 2
Формат : AC-3
Формат/Информация : Audio Coding 3
Расширение режима : CM (complete main)
Идентификатор кодека : 2000
Продолжительность : 1 ч. 46 м.
Вид битрейта : Постоянный
Битрейт : 448 Кбит/сек
Каналы : 6 каналов
Расположение каналов : Front: L C R, Side: L R, LFE
Частота : 48,0 КГц
Битовая глубина : 16 бит
Метод сжатия : С потерями
Размер потока : 341 Мбайт (17%)
Выравнивание : Разделение по промежуткам
Продолжительность промежутка : 42 мс. (1,00 видеокадр)
Время предзагрузки промежутка : 500 мс.
Скриншоты:




Время раздачи: 16.30-00.00 до 5 скачавших
 Торрент: Платиновая раздача  Зарегистрирован
 
Скачать


Примагнититься
 Зарегистрирован:   20 Дек 2011 20:14:25
 Размер:   1.99 GB  (
 Рейтинг:   4.6 (Голосов: 57)
 Поблагодарили:   246
 Проверка:   Оформление проверено модератором 21 Дек 2011 05:55:57
Как cкачать  ·  Как раздать  ·  Правильно оформить  ·  Поднять ратио!  
мщыещкп
Стаж: 11 лет 6 мес.
Сообщений: 202
Ratio: 2.239
Раздал: 3.42 TB
Поблагодарили: 271
100%
russia.gif
Там действие проходит в Перми и Казани?
kvaref
Стаж: 12 лет 10 мес.
Сообщений: 25
Ratio: 18.948
17.65%
спасибо авторам обложки.
если знаешь что зараза пошла из казани зачем кино смотреть?
qwertyyy12345
Стаж: 11 лет 4 мес.
Сообщений: 432
Ratio: 79.22
Раздал: 21.99 TB
100%
pirates.png
:смех: ну дела блин
содерберг бы удивился глядя на эту обложку
рекламщики заразились фгм от надмозгов
POM80
Стаж: 14 лет 10 мес.
Сообщений: 166
Ratio: 560.886
Поблагодарили: 6424
100%
witch.png
Кому-нибудь нужны форсированные сабы?
Можно пока отсюда качнуть http://subtitry.ru/subs/upload/Contagion_RUS_2011_20120114171304.zip
stagger1ee
Стаж: 11 лет 2 мес.
Сообщений: 39
Ratio: 1.118
100%
Откуда: пятигорск
russia.gif
ералаш
SerjIQ
Стаж: 12 лет
Сообщений: 478
Ratio: 4.61
Раздал: 5.799 TB
Поблагодарили: 351
0.47%
ussr.gif
Отличный фильм! Если вы ждете от него супермега-экшена, то этого здесь нет. Но фильм совсем не скучный, достаточно реалистично показаны действия ВОЗ, CDC, интернет-блоггеров и народных масс, которые, в зависимости от степени сообразительности, верят тем или иным, в случае эпидемии (на самом деле их действия никому неизвестны, пока таковое заражение не случилось:) Не совсем понятно почему на постере Пермь и Казань, Россию такое счастье в начале не затронуло и не помню чтоб ее вообще упоминали, зато Киев одним из первых попал в десятку сомнительного первенства.

_________________
Life is just a shareware with a random time trial limit...
Ciliegio
Стаж: 12 лет 8 мес.
Сообщений: 2
Ratio: 0.345
0%
russia.gif
Фильм го.но=(
tov
Стаж: 13 лет 8 мес.
Сообщений: 24
Ratio: 1.01
77.16%
russia.gif
А где раздача-то, раздавальщики?
Показать сообщения:   
Начать новую тему   Ответить на тему    Торрент-трекер NNM-Club -> Зарубежное кино -> Зарубежные Фильмы (SD) Часовой пояс: GMT + 3
Страница 1 из 1