Классический форум-трекер
canvas not supported
Нас вместе: 4 215 872

Заражение / Contagion (2011) HDRip [H.264]


Страницы:  1, 2  След. 
 
RSS
Начать новую тему   Ответить на тему    Торрент-трекер NNM-Club -> Зарубежное кино -> Зарубежные Фильмы (SD)
Автор Сообщение
Lelya_K ®
Стаж: 11 лет 10 мес.
Сообщений: 5536
Ratio: 7169.418
Раздал: 109.3 TB
Поблагодарили: 627677
100%
Откуда: Московская область
nnm-club.gif
Заражение / Contagion (2011) HDRip [H.264]
Производство: США, ОАЭ \ Double Feature Films, Imagenation Abu Dhabi FZ, Participant Media, Regency Enterprises, Warner Bros. Pictures
Жанр: фантастика, боевик, триллер, драма

Режиссер: Стивен Содерберг
Актеры: Мэтт Дэймон, Марион Котийяр, Джуд Лоу, Гвинет Пэлтроу, Кейт Уинслет, Дженнифер Или, Лоуренс Фишборн, Брайан Крэнстон, Джон Хоукс, Санаа Лэтэн

Описание:
Международная организация врачей совместно с Центром по контролю и профилактике заболеваний США пытается помешать распространению смертельного вируса.


Возраст: 12+ (зрителям, достигшим 12 лет)
Рейтинг MPAA: PG-13 (детям до 13 лет просмотр нежелателен)

Продолжительность: 01:46:26
Качество видео: HDRip
Перевод: Дублированный

Видео: AVC/H.264, 1024x576, ~1860 kbps
Аудио 1: AC3 5.1, 448 kbps - Русский
Аудио 2: AC3 5.1, 448 kbps - Английский
Полное имя                       : D:\Заражение-Contagion.2011.H.264.HDRip.mkv
Формат : Matroska
Версия формата : Version 2
Размер файла : 2,05 Гбайт
Продолжительность : 1 ч. 46 м.
Общий поток : 2757 Кбит/сек
Название фильма : Заражение - иZVeRG
Дата кодирования : UTC 2011-12-20 22:56:57
Программа кодирования : mkvmerge v5.0.1 ('Es ist Sommer') built on Oct 9 2011 11:55:43
Библиотека кодирования : libebml v1.2.2 + libmatroska v1.3.0

Видео
Идентификатор : 1
Формат : AVC
Формат/Информация : Advanced Video Codec
Профиль формата : High@L4.1
Параметр CABAC формата : Да
Параметр ReFrames формата : 14 кадров
Режим смешивания : Header stripping
Идентификатор кодека : V_MPEG4/ISO/AVC
Продолжительность : 1 ч. 46 м.
Битрейт : 1860 Кбит/сек
Ширина : 1024 пикс.
Высота : 576 пикс.
Соотношение сторон : 16:9
Частота кадров : 23,976 кадр/сек
Цветовое пространство : YUV
Подвыборка цветности : 4:2:0
Битовая глубина : 8 бит
Тип развёртки : Прогрессивная
Бит/(Пиксели*Кадры) : 0.132
Размер потока : 1,34 Гбайт (66%)
Библиотека кодирования : x264 core 119 r2106 07efeb4
Настройки программы : cabac=1 / ref=14 / deblock=1:-2:-1 / analyse=0x3:0x113 / me=umh / subme=11 / psy=1 / psy_rd=1.05:0.15 / mixed_ref=1 / me_range=32 / chroma_me=1 / trellis=2 / 8x8dct=1 / cqm=0 / deadzone=21,11 / fast_pskip=0 / chroma_qp_offset=-3 / threads=12 / sliced_threads=0 / nr=0 / decimate=1 / interlaced=0 / bluray_compat=0 / constrained_intra=0 / bframes=8 / b_pyramid=2 / b_adapt=2 / b_bias=0 / direct=3 / weightb=1 / open_gop=0 / weightp=2 / keyint=250 / keyint_min=23 / scenecut=40 / intra_refresh=0 / rc_lookahead=80 / rc=2pass / mbtree=1 / bitrate=1860 / ratetol=1.0 / qcomp=0.60 / qpmin=0 / qpmax=69 / qpstep=4 / cplxblur=20.0 / qblur=0.5 / ip_ratio=1.40 / aq=2:0.80

Аудио #1
Идентификатор : 2
Формат : AC-3
Формат/Информация : Audio Coding 3
Расширение режима : CM (complete main)
Режим смешивания : Header stripping
Идентификатор кодека : A_AC3
Продолжительность : 1 ч. 46 м.
Вид битрейта : Постоянный
Битрейт : 448 Кбит/сек
Каналы : 6 каналов
Расположение каналов : Front: L C R, Side: L R, LFE
Частота : 48,0 КГц
Битовая глубина : 16 бит
Метод сжатия : С потерями
Размер потока : 341 Мбайт (16%)
Заголовок : Dub
Язык : Russian

Аудио #2
Идентификатор : 3
Формат : AC-3
Формат/Информация : Audio Coding 3
Расширение режима : CM (complete main)
Режим смешивания : Header stripping
Идентификатор кодека : A_AC3
Продолжительность : 1 ч. 46 м.
Вид битрейта : Постоянный
Битрейт : 448 Кбит/сек
Каналы : 6 каналов
Расположение каналов : Front: L C R, Side: L R, LFE
Частота : 48,0 КГц
Битовая глубина : 16 бит
Метод сжатия : С потерями
Размер потока : 341 Мбайт (16%)
Заголовок : Eng
Язык : English

Меню
00:00:00.000 : en:
00:04:33.356 : en:
00:07:26.779 : en:
00:11:08.959 : en:
00:14:20.818 : en:
00:16:01.043 : en:
00:17:44.813 : en:
00:20:15.464 : en:
00:22:23.633 : en:
00:24:11.908 : en:
00:26:55.780 : en:
00:30:31.996 : en:
00:34:17.096 : en:
00:36:35.026 : en:
00:38:40.735 : en:
00:41:28.235 : en:
00:42:51.068 : en:
00:46:55.145 : en:
00:49:49.403 : en:
00:52:00.951 : en:
00:53:57.609 : en:
00:57:30.363 : en:
01:00:54.233 : en:
01:03:22.715 : en:
01:07:42.391 : en:
01:10:21.258 : en:
01:12:34.224 : en:
01:15:35.322 : en:
01:18:10.227 : en:
01:22:34.032 : en:
01:25:23.409 : en:
01:31:28.357 : en:
01:34:35.294 : en:
01:36:10.556 : en:
01:41:28.332 : en:
Скриншоты:



Все одноименные релизы в Клубе

Время раздачи: 24/7 (до 10 скачавших)
[NNM-Club.ru]_Zarazhenie-Contagion.2011.H.264.HDRip.mkv.torrent
 Торрент: Платиновая раздача  Зарегистрирован
 
Скачать


Примагнититься
 Зарегистрирован:   21 Дек 2011 08:27:34
 Размер:   2.05 GB  (
 Рейтинг:   4.7 (Голосов: 112)
 Поблагодарили:   497
 Проверка:   Оформление проверено модератором 21 Дек 2011 09:24:44
Как cкачать  ·  Как раздать  ·  Правильно оформить  ·  Поднять ратио!  
peetbull
Стаж: 12 лет 7 мес.
Сообщений: 232
Ratio: 9.015
Раздал: 11.35 TB
50.22%
Откуда: Одесса
ukraine.gif
Vadim7 писал(а): Перейти к сообщению
харэ закидывать этот бред :злость: :кругом голова: :недовольный: :убится ап стену:

спасибо жителям Донбасса ?
cadetsyvorov
Стаж: 12 лет 11 мес.
Сообщений: 36
Ratio: 1.286
100%
Откуда: ========
russia.gif
Бяка.
cerberus^70
Стаж: 11 лет 6 мес.
Сообщений: 190
Ratio: 21.497
Поблагодарили: 30777
100%
Откуда: Казахстан
kazakhstan.gif
Автор...сэмпл будет..?
Lelya_K ®
Стаж: 11 лет 10 мес.
Сообщений: 5536
Ratio: 7169.418
Раздал: 109.3 TB
Поблагодарили: 627677
100%
Откуда: Московская область
nnm-club.gif
Vadim7 писал(а): Перейти к сообщению
харэ закидывать этот бред :злость: :кругом голова: :недовольный: :убится ап стену:

Это что еще за гнев недовольных :D... у Вас всегда есть выбор и если, что-то не нравится можете не качать
А выкладывать или нет, позвольте решать мне самой, и не надо мне злых смайликов рисовать :показывает язык:

cerberus^70 писал(а):
Автор...сэмпл будет..?

на месте, как всегда, смотрите внимательней и Вы все увидите
ikart
Стаж: 12 лет 9 мес.
Сообщений: 4
Ratio: 0.843
100%
Откуда: Москва
russia.gif
Отличный фильм,отличное качество. Автору раздачи СПАСИБО. :респект: :поклоняется:
evgenijbox
 
Стаж: 12 лет 3 мес.
Сообщений: 218
Ratio: 10.663
Раздал: 1.531 TB
Поблагодарили: 1
100%
Откуда: Чернигов
ukraine.gif
peetbull писал(а): Перейти к сообщению
Vadim7 писал(а): Перейти к сообщению
харэ закидывать этот бред :злость: :кругом голова: :недовольный: :убится ап стену:

спасибо жителям Донбасса ?


За смачного ананаса :новогоднее пиво:
blackden
Uploader 100+
Стаж: 15 лет 5 мес.
Сообщений: 143
Ratio: 60.875
100%
Vadim7 писал(а): Перейти к сообщению
харэ закидывать этот бред :злость: :кругом голова: :недовольный: :убится ап стену:

Это называется научная фантастика, не хочешь не бери, но это гораздо лучше поделок с недозвуком...
e-falcon
Стаж: 12 лет 8 мес.
Сообщений: 421
Ratio: 8.84
Раздал: 31.65 TB
100%
Откуда: Запорожье
ukraine.gif
Vadim7 писал(а):
харэ закидывать этот бред :злость: :кругом голова: :недовольный: :убится ап стену:

Спасибі земляче !!!

_________________
Laptop Gigabyte Aero 15
CPU i7-11800h, RAM 64GB, RTX3060, 2xSSD 1TB PCI-E, 4K screen HDR400
SeeYouNow
Стаж: 11 лет 6 мес.
Сообщений: 19
Ratio: 0.255
0%
Начали крутить тему конца света. То тягомотина последня любовь на земле, то заражение, то меланхолия... Тфу.
la mano de dios
Стаж: 11 лет 9 мес.
Сообщений: 215
Ratio: 0.691
100%
russia.gif
Под такое кино - только засыпать. Не тратьте свое время..........
CheeGer
Стаж: 12 лет 10 мес.
Сообщений: 71
Ratio: 2.32
100%
Откуда: Питер
krevedko.png
Не вериться что такие актёры согласятся играть в откровенной какуле.. так что нужно заценить...
dmi1902
Стаж: 11 лет 11 мес.
Сообщений: 164
Ratio: 5.698
100%
Откуда: Kiev
ukraine.gif
поучительный фильм в преддверии очередной эпидемии гриппа..... :шок: :шок: :шок:
Werewoolf0
Стаж: 11 лет 4 мес.
Сообщений: 76
Ratio: 1.759
100%
А че зомби не буде? :смех: шучу
SweetHeart
Стаж: 15 лет 7 мес.
Сообщений: 769
Ratio: 10.234
Поблагодарили: 182
88.24%
Откуда: Республика Корея
north_korea.gif
Заснул где-то на 2/3... Спать оч хотелось :)

_________________
Показать сообщения:   
Начать новую тему   Ответить на тему    Торрент-трекер NNM-Club -> Зарубежное кино -> Зарубежные Фильмы (SD) Часовой пояс: GMT + 3
Страницы:  1, 2  След.
Страница 1 из 2