Классический форум-трекер
canvas not supported
Нас вместе: 4 210 922

Заражение / Contagion (2011) DVD5


 
 
RSS
Начать новую тему   Ответить на тему    Торрент-трекер NNM-Club -> Зарубежное кино -> Зарубежные Фильмы (DVD)
Автор Сообщение
Katrina M ®
Стаж: 10 лет 11 мес.
Сообщений: 10
Поблагодарили: 1178
100%
Откуда: Новосибирск
russia.gif
Заражение / Contagion (2011) DVD5
Русское название: Заражение
Оригинальное название: Contagion
Год выпуска: 2011
Производство: США, ОАЭ
Студия: Double Feature Films / Imagenation Abu Dhabi FZ / Participant Media / Regency Enterprises / Warner Bros. Pictures
Бюджет: $60 000 000
Жанр: Триллер, Драма
Перевод: Дублированный
Вид субтитров: Вшитые отключаемые
Язык субтитров: Английский

Дата мировой премьеры: 3 сентября 2011
Дата российской премьеры: 13 октября 2011, «Каро-Премьер»
Дата выхода DVD релиза: 26 января 2012, «CP-Digital»

Режиссер: Стивен Содерберг
Продюсер: Грегори Джейкобс, Майкл Шамберг, Стейси Шер
Актеры: Марион Котийяр, Мэтт Дэймон, Лоренс Фишбёрн, Джуд Лоу, Гвинет Пэлтроу, Кейт Уинслет, Брайан Крэнстон, Дженнифер Эль, Санаа Лэтэн, Тинг Яу Цуй

Описание фильма:
Международная организация врачей совместно с Центром по контролю и профилактике заболеваний США пытается помешать распространению смертельного вируса.



Продолжительность: 01:42:04
Качество видео: DVD5

Видеокодек: MPEG-2
Битрейт видео: ~5226 kb/s
Размер кадра: PAL 16:9 (720x576)
Аудиокодек и битрейт аудио:
Аудио #1: Русский ( AC3, 2 ch, 320 kb/s)
Аудио #2: Английский ( AC3, 6 ch, 448 kb/s )
Дополнительно: нет
Общее
Полное имя : D:\Заражение\Заражение\VIDEO_TS\VTS_01_1.VOB
Формат : MPEG-PS
Размер файла : 1000 Мбайт
Продолжительность : 22 м.
Режим общего битрейта : Переменный
Общий поток : 6116 Кбит/сек

Видео
Идентификатор : 224 (0xE0)
Формат : MPEG Video
Версия формата : Version 2
Профиль формата : Main@Main
Параметр BVOP формата : Да
Параметр матрицы формата : Выборочная
Продолжительность : 22 м.
Вид битрейта : Переменный
Битрейт : 5226 Кбит/сек
Максимальный битрейт : 8000 Кбит/сек
Ширина : 720 пикселей
Высота : 576 пикселей
Соотношение сторон : 16:9
Частота кадров : 25,000 кадров/сек
Стандарт вещания : PAL
Цветовое пространство : YUV
Субдискретизация насыщенности : 4:2:0
Битовая глубина : 8 бит
Тип развёртки : Прогрессивная
Метод сжатия : С потерями
Бит/(Пиксели*Кадры) : 0.504
Размер потока : 855 Мбайт (85%)

Аудио #1
Идентификатор : 189 (0xBD)-128 (0x80)
Формат : AC-3
Формат/Информация : Audio Coding 3
Расширение режима : CM (complete main)
Режим смешивания : DVD-Video
Продолжительность : 22 м.
Вид битрейта : Постоянный
Битрейт : 320 Кбит/сек
Каналы : 2 канала
Расположение каналов : Front: L R
Частота : 48,0 КГц
Битовая глубина : 16 бит
Метод сжатия : С потерями
Размер потока : 52,3 Мбайт (5%)

Аудио #2
Идентификатор : 189 (0xBD)-129 (0x81)
Формат : AC-3
Формат/Информация : Audio Coding 3
Расширение режима : CM (complete main)
Режим смешивания : DVD-Video
Продолжительность : 22 м.
Вид битрейта : Постоянный
Битрейт : 448 Кбит/сек
Каналы : 6 каналов
Расположение каналов : Front: L C R, Side: L R, LFE
Частота : 48,0 КГц
Битовая глубина : 16 бит
Метод сжатия : С потерями
Размер потока : 73,2 Мбайт (7%)

Текст #1
Идентификатор : 189 (0xBD)-32 (0x20)
Формат : RLE
Формат/Информация : Run-length encoding
Режим смешивания : DVD-Video

Текст #2
Идентификатор : 189 (0xBD)-33 (0x21)
Формат : RLE
Формат/Информация : Run-length encoding
Режим смешивания : DVD-Video

Меню
Title: Заражение
Size: 4.36 Gb ( 4 567 602,00 KBytes ) - DVD-5
Enabled regions: 1, 2, 3, 4, 5, 6, 7, 8

VTS_01 :
Play Length: 01:42:04
Video: PAL 16:9 (720x576) VBR, Auto Letterboxed
Audio:
Russian (Dolby AC3, 2 ch)
English (Dolby AC3, 6 ch)
Subtitles:
English

* Menus Information *

VIDEO_TS Menu
Video:
PAL 16:9 (720x576) VBR
Auto Pan&Scan
Audio:
Not specified (LinearPCM, 2 ch)
English Language Unit :
Title Menu

VTS_01 Menu
Video:
PAL 16:9 (720x576) VBR
Auto Letterboxed
Audio:
Not specified (Dolby AC3, 2 ch)
English Language Unit :
Root Menu
Chapter (PTT) Menu
Сделан из BDRemux, скачан из интернета.
Меню статичное, полностью озвученное.
Обработка производилась:
PhotoShop - работа над меню,
tsMuxer - демуксинг m2ts,
AVISynth, Carbon Coder - работа с видео,
Tranzcode, Sony Vegas, - работа со звуком,
SupRip, Subtitle Workshop - работа над субтитрами,
Sony Vegas - синхронизация аудио и видео,
DVD Architect - создание DVD.
Работоспособность проверена на софтовом плеере Windows Media, PowerDVD и бытовом Philips.
Записано программой ImgBurn на DVD-RW болванку.
Скриншоты:

Время раздачи: С 22:00 до 9:00 (по Москве) до 5 скачавших
 Торрент: Платиновая раздача  Зарегистрирован
 
Скачать


 Зарегистрирован:   24 Дек 2011 06:39:46
 Размер:   4.36 GB  (
 Рейтинг:   4.3 (Голосов: 36)
 Поблагодарили:   154
 Проверка:   Оформление проверено модератором 24 Дек 2011 10:32:44
Как cкачать  ·  Как раздать  ·  Правильно оформить  ·  Поднять ратио!  
SSER-J
Стаж: 11 лет 7 мес.
Сообщений: 31
Ratio: 3.647
100%
Откуда: санкт-петербург
russia.gif
стоит скачать и посммотреть творение великого мэтра кино-Стивена Спилберга !
Dilll
Стаж: 14 лет 6 мес.
Сообщений: 448
Ratio: 6.631
Поблагодарили: 95
11.76%
Откуда: Симферополь
russia.gif
SSER-J писал(а): Перейти к сообщению
стоит скачать и посммотреть творение великого мэтра кино-Стивена Спилберга !

Вообще-то режиссер Стивен Содерберг.

_________________
When all are one and one is all
To be a rock and not to roll.
Scooter_gto
Стаж: 12 лет 2 мес.
Сообщений: 39
Ratio: 8.9
100%
russia.gif
Ура!!!!! Наконец то в двд5 Спасибо огромное!!!!!!!!!!!!!
baltak
Стаж: 11 лет 6 мес.
Сообщений: 41
Ratio: 1.033
100%
Откуда: AVTOGRAD
russia.gif
фильм-полный провал( игра актёров никакая
Jerryheep
Стаж: 12 лет 3 мес.
Сообщений: 51
Ratio: 4.111
100%
russia.gif
Скучный схематичный фильм. Типичная парадокументалистика. $ 60 млн. пошли видимо на гонорары звездам. Да и те согласились сниматься скорее из-за старых заслуг Содерберга.
mashinister
Стаж: 12 лет 8 мес.
Сообщений: 109
Ratio: 6.069
100%
ну оочень скучное кино
sifa
Uploader 300+
Стаж: 15 лет 1 мес.
Сообщений: 1439
Ratio: 140.456
Раздал: 385.2 TB
Поблагодарили: 12581
100%
фильм скучный и предсказуемый :( автору спасибо
velkos
Стаж: 13 лет 8 мес.
Сообщений: 285
Ratio: 1.169
100%
Для разнообразия пойдет....
Показать сообщения:   
Начать новую тему   Ответить на тему    Торрент-трекер NNM-Club -> Зарубежное кино -> Зарубежные Фильмы (DVD) Часовой пояс: GMT + 3
Страница 1 из 1