Классический форум-трекер
canvas not supported
Нас вместе: 4 233 721

Эквилибриум / Equilibrium (2002) [1080p] BDRip


 
 
RSS
Начать новую тему   Ответить на тему    Торрент-трекер NNM-Club -> Зарубежное кино -> Зарубежные Фильмы (HD, FHD)
Автор Сообщение
pashqa95 ®
Стаж: 13 лет 5 мес.
Сообщений: 215
Ratio: 74.063
Раздал: 23.54 TB
Поблагодарили: 36148
100%
Откуда: Ekaterinburg
Эквилибриум | Equilibrium
«The only thing more powerful than the system, is the man that will overthrow it.»
Страна: США / Dimension Films, Blue Tulip
Год выпуска: 2002
Жанр: Фантастика, боевик, триллер, драма

Описание:
Действие происходит в будущем, когда люди лишены возможности выражать какие-то эмоции, потому, что они... запрещены. Это - та цена, которую человечество платит за устранение из своей жизни войны. Теперь книги, искусство и музыка находятся вне закона. А любое чувство - уже преступление, наказуемое смертью.

Для проведения в жизнь существующего правила используется принудительное применение лекарства «прозиум». Правительственный агент Джон Престон борется с теми, кто нарушает правила. В один прекрасный момент он забывает принять очередную дозу лекарства и с ним происходит духовное превращение, что приводит его к противоречию с самим собой и с начальством.


Режиссер: Курт Уиммер
Озвучка: Кристиан Бэйл, Тэй Диггз, Энгус МакФадьен, Шон Бин, Эмили Уотсон, Уильям Фихтнер, Мэттью Харбор, Эмили Сьеверт, Шон Пертуи, Доминик Пурселл

Продолжительность: 01:33:59
Перевод: Дублированный


Рейтинг R - Детям до 17 лет обязательно присутствие родителей
Релиз группа: Рип от DON! / Релиз от
Язык субтитров: Russian, English, Spanish, Dutch
Вид субтитров: Вшитые

Видеокодек: MPEG-4 AVC/H.264
Битрейт видео: 13.4 Mbps
Размер кадра: 1920x820
Качество видео: BDRip 1080p
Аудио #1: Русский, DTS 5.1, 768 kbps |Дубляж, West Video|
Аудио #2: Русский, AC3 5.1, 448 kbps |Многоголосый закадровый, Киномания|
Аудио #3: Русский, AC3 5.1, 1510 kbps |Одноголосый закадровый, В.Королев|
Аудио #4: Русский, AC3 5.1, 768 kbps |Одноголосый закадровый, Ю.Живов|
Аудио #5: Украинский, AC3 2.0, 192 kbps |Многоголосый закадровый|
Аудио #6: Английский, AC3 5.1, 640 kbps |Оригинал|
Аудио #7: Английский, OGG 2.0, 80 Kbps |Commentary Track with the director Kurt Wimmer|
Аудио #8: Английский, OGG 2.0, 80 kbps |Commentary Track with the director Kurt Wimmer & the producer Lucas Foster|
• Около двухсот человек прошли пробы на роль Патриджа, и только, когда начались съемки, Лукас Фостер сумел убедить Шона Бина принять участие в фильме.
• Удивительно, но сцена пистолетной перестрелки Джона Престона с офицерами заняла всего 30 минут съемочного времени.
• Костюм Джона Престона был позаимствован из фильма с участием Брюса Ли «Кулак ярости».
• Пистолеты, используемые клериками, носят название Beretta M93R. Точно такой же пистолет в свое время был использован на съемках «Робота-полицейского».
• Дотошными статистиками в картине насчитано 236 трупов.
• Престон добирается до жилища Виктории и обнаруживает там несметное количество грампластинок. Одну из них он решает прослушать. В фильме звучит фрагмент девятой симфонии Людвига Ван Бетховена.
• В эпизоде с собакой был использован щенок бернского зенненхунда. Любопытно, что собачьи звуки, которые мы можем услышать в этом эпизоде (тявканье, учащенное дыхание, поскуливание) на самом деле издавал специально обученный актер-пародист.
• При активном участии Курта Уиммера, режиссера и сценариста проекта, были внесены новые элементы в искусство единоборств. Никто ранее еще не снимал поединок на пистолетах в таком ракурсе.
• Наркотик, используемый в фильме для отключения чувств, носит название «Прозиум». Это своеобразная комбинация двух препаратов «Прозак» и «Валиум», каждый из которых служит в повседневной жизни для снятия стресса.
• Концепт-арт Либрии был навеян работами художника Хью Ферриса.
• Партридж читает стихи Йетса.
• Тетраграмматон — слово, использующееся в иудаизме как имя Бога.
• Первоначально препарат Прозиум назывался «либриум» (с намеком на Либрию), но выяснилось, что это реально зарегистрированная торговая марка.
• Во время конфискации картин камера выхватывает полотно с юной девушкой – это «Книга историй» Адольфа-Уильяма Богеро.
• Курт Уиммер хотел, чтобы Престона сыграл Доминик Пурселл. Однако продюсеры не желали видеть в главной роли малоизвестного австралийского актера. Чтобы совсем не обижать Пурселла, ему дали небольшую роль в начале фильма.
• Режиссер Курт Уиммер дважды появляется в фильме. В первом случае, он один из слушателей на выступлении клерика из Тетраграмматона, во втором – один из мятежников.
• В фильме показан глобус, расположение материков на котором сильно отличается от нашего мира.
General
Unique ID : 223564160085274645499941792483797843583 (0xA830E41B32909EFFB4BB9CEEBBF33E7F)
Complete name : C:\Films\Equilibrium.2002.1080p.DTS.BluRay.5xRus.Eng.HDCLUB.mkv
Format : Matroska
Format version : Version 2
File size : 13.3 GiB
Duration : 1h 47mn
Overall bit rate : 17.8 Mbps
Movie name : Equilibrium (2002) - Release for HDCLUB
Encoded date : UTC 2011-02-24 15:05:25
Writing application : mkvmerge v3.3.0 ('Language') built on Mar 24 2010 14:59:24
Writing library : libebml v0.8.0 + libmatroska v0.9.0
Attachment : Yes / Yes / Yes

Video
ID : 1
Format : AVC
Format/Info : Advanced Video Codec
Format profile : High@L4.1
Format settings, CABAC : Yes
Format settings, ReFrames : 5 frames
Format settings, GOP : N=1
Codec ID : V_MPEG4/ISO/AVC
Duration : 1h 47mn
Bit rate : 13.4 Mbps
Width : 1 920 pixels
Height : 820 pixels
Display aspect ratio : 2.35:1
Frame rate : 23.976 fps
Color space : YUV
Chroma subsampling : 4:2:0
Bit depth : 8 bits
Scan type : Progressive
Bits/(Pixel*Frame) : 0.354
Stream size : 9.73 GiB (73%)
Title : Release for HDCLUB
Writing library : x264 core 68 r1195M 5d75a9b
Encoding settings : cabac=1 / ref=5 / deblock=1:-3:-3 / analyse=0x3:0x113 / me=umh / subme=9 / psy_rd=1.3:0.0 / mixed_ref=1 / me_range=64 / chroma_me=1 / trellis=2 / 8x8dct=1 / cqm=0 / deadzone=21,11 / chroma_qp_offset=-2 / threads=8 / nr=0 / decimate=0 / mbaff=0 / bframes=10 / b_pyramid=1 / b_adapt=2 / b_bias=0 / direct=3 / wpredb=1 / keyint=250 / keyint_min=25 / scenecut=40 / rc=2pass / bitrate=13372 / ratetol=1.0 / qcomp=0.60 / qpmin=10 / qpmax=51 / qpstep=4 / cplxblur=20.0 / qblur=0.5 / ip_ratio=1.40 / pb_ratio=1.30 / aq=1:1.00
Language : English

Audio #1
ID : 2
Format : DTS
Format/Info : Digital Theater Systems
Codec ID : A_DTS
Duration : 1h 47mn
Bit rate mode : Constant
Bit rate : 755 Kbps
Channel(s) : 6 channels
Channel positions : Front: L C R, Side: L R, LFE
Sampling rate : 48.0 KHz
Bit depth : 24 bits
Compression mode : Lossy
Stream size : 578 MiB (4%)
Title : DTS 5.1 768 kbps Дубляж - West #1
Language : Russian

Audio #2
ID : 3
Format : AC-3
Format/Info : Audio Coding 3
Mode extension : CM (complete main)
Codec ID : A_AC3
Duration : 1h 47mn
Bit rate mode : Constant
Bit rate : 448 Kbps
Channel(s) : 6 channels
Channel positions : Front: L C R, Side: L R, LFE
Sampling rate : 48.0 KHz
Bit depth : 16 bits
Compression mode : Lossy
Stream size : 343 MiB (3%)
Title : AC3 5.1 448 kbps Многоголосый закадровый - Киномания #2
Language : Russian

Audio #3
ID : 4
Format : AC-3
Format/Info : Audio Coding 3
Mode extension : CM (complete main)
Codec ID : A_AC3
Duration : 1h 47mn
Bit rate mode : Constant
Bit rate : 192 Kbps
Channel(s) : 2 channels
Channel positions : Front: L R
Sampling rate : 48.0 KHz
Bit depth : 16 bits
Compression mode : Lossy
Stream size : 147 MiB (1%)
Title : AC3 2.0 192 kbps Многоголосый закадровый #3
Language : Ukrainian

Audio #4
ID : 5
Format : DTS
Format/Info : Digital Theater Systems
Codec ID : A_DTS
Duration : 1h 47mn
Bit rate mode : Constant
Bit rate : 1 510 Kbps
Channel(s) : 6 channels
Channel positions : Front: L C R, Side: L R, LFE
Sampling rate : 48.0 KHz
Bit depth : 24 bits
Compression mode : Lossy
Stream size : 1.13 GiB (8%)
Title : AC3 5.1 1536 kbps Одноголосый закадровый - В.Королев #4
Language : Russian

Audio #5
ID : 6
Format : DTS
Format/Info : Digital Theater Systems
Codec ID : A_DTS
Duration : 1h 47mn
Bit rate mode : Constant
Bit rate : 755 Kbps
Channel(s) : 6 channels
Channel positions : Front: L C R, Side: L R, LFE
Sampling rate : 48.0 KHz
Bit depth : 24 bits
Compression mode : Lossy
Stream size : 578 MiB (4%)
Title : AC3 5.1 768 kbps Одноголосый закадровый - Ю.Живов #5
Language : Russian

Audio #6
ID : 7
Format : AC-3
Format/Info : Audio Coding 3
Mode extension : CM (complete main)
Codec ID : A_AC3
Duration : 1h 47mn
Bit rate mode : Constant
Bit rate : 640 Kbps
Channel(s) : 6 channels
Channel positions : Front: L C R, Side: L R, LFE
Sampling rate : 48.0 KHz
Bit depth : 16 bits
Compression mode : Lossy
Stream size : 490 MiB (4%)
Title : AC3 5.1 640 kbps Original track #6
Language : English

Audio #7
ID : 8
Format : Vorbis
Format settings, Floor : 1
Codec ID : A_VORBIS
Duration : 1h 47mn
Bit rate mode : Variable
Bit rate : 80.0 Kbps
Channel(s) : 2 channels
Sampling rate : 48.0 KHz
Compression mode : Lossy
Stream size : 61.3 MiB (0%)
Title : Vorbis 80 kbps - Commentary Track with the director Kurt Wimmer #7
Writing library : libVorbis 1.2 (UTC 2007-06-22)
Language : English

Audio #8
ID : 9
Format : Vorbis
Format settings, Floor : 1
Codec ID : A_VORBIS
Duration : 1h 47mn
Bit rate mode : Variable
Bit rate : 80.0 Kbps
Channel(s) : 2 channels
Sampling rate : 48.0 KHz
Compression mode : Lossy
Stream size : 61.3 MiB (0%)
Title : Vorbis 80 kbps - Commentary Track with the director Kurt Wimmer & the producer Lucas Foster #8
Writing library : libVorbis 1.2 (UTC 2007-06-22)
Language : English

Text #1
ID : 10
Format : UTF-8
Codec ID : S_TEXT/UTF8
Codec ID/Info : UTF-8 Plain Text
Language : Russian

Text #2
ID : 11
Format : UTF-8
Codec ID : S_TEXT/UTF8
Codec ID/Info : UTF-8 Plain Text
Language : English

Text #3
ID : 12
Format : UTF-8
Codec ID : S_TEXT/UTF8
Codec ID/Info : UTF-8 Plain Text
Language : Spanish

Text #4
ID : 13
Format : UTF-8
Codec ID : S_TEXT/UTF8
Codec ID/Info : UTF-8 Plain Text
Language : Dutch

Скриншоты:


Время раздачи: 24/7
[NNM-Club.ru]_Equilibrium.2002.1080p.DTS.BluRay.5xRus.Eng.HDCLUB.torrent
 Торрент: Платиновая раздача  Зарегистрирован
 
Скачать


 Зарегистрирован:   11 Янв 2012 16:12:57
 Размер:   13.3 GB  (
 Рейтинг:   4.8 (Голосов: 107)
 Поблагодарили:   296
 Проверка:   Оформление проверено модератором 11 Янв 2012 19:53:01
Как cкачать  ·  Как раздать  ·  Правильно оформить  ·  Поднять ратио!  
ZeePRO
Стаж: 17 лет 2 мес.
Сообщений: 652
Ratio: 12.184
Раздал: 127.2 TB
Поблагодарили: 5
62.97%
Откуда: Москва
russia.gif
Спасибо за голос Владимира Королёва!

_________________
Всё, что нас убивает, делает нас мертвее.
300 Mbps 300 Mbps 24/7
usan
 
Стаж: 14 лет 6 мес.
Сообщений: 1085
Ratio: 2.134
Поблагодарили: 1376
100%
ussr.gif
отличный фильм
coffease
Стаж: 13 лет 11 мес.
Сообщений: 251
Ratio: 12.387
Раздал: 22.36 TB
Поблагодарили: 2894
100%
Откуда: все мы жители Земли
krevedko.png
фильм на 1 раз посмотреть. стреляшка-бомбашка для 15летних подростков

_________________
iMac Retina 5K 27-inch
4Ghz Quad-Core i7
32Gb DDR 3
LivEviL
Стаж: 14 лет 9 мес.
Сообщений: 8
Ratio: 6.996
100%
russia.gif
coffease писал(а): Перейти к сообщению
фильм на 1 раз посмотреть. стреляшка-бомбашка для 15летних подростков

Сочувствую вам, если вы не смогли понять в ходе просмотра, что фильм шедевральный!
"стреляшка-бомбашка" там в умеренном количестве, зато смысла фильм в себе несет столько.. что оставляет под впечатлением ещё очень долго
VENik39rus
 
Стаж: 14 лет 3 мес.
Сообщений: 456
Ratio: 2.27
100%
Откуда: из прошлого тысячелетия,
ussr.gif
LivEviL писал(а): Перейти к сообщению
coffease писал(а): Перейти к сообщению
фильм на 1 раз посмотреть. стреляшка-бомбашка для 15летних подростков

Сочувствую вам, если вы не смогли понять в ходе просмотра, что фильм шедевральный!
"стреляшка-бомбашка" там в умеренном количестве, зато смысла фильм в себе несет столько.. что оставляет под впечатлением ещё очень долго

Согласен с вами полностью, есть над чем задуматься после просмотра. :задумался:

_________________
Не надо относиться к жизни слишком серьёзно, ещё никому не удавалось выйти из неё живым.
Dementor
Uploaders 100+
 
Стаж: 15 лет 2 мес.
Сообщений: 295
Ratio: 569.387
Поблагодарили: 1630
100%
liechtenstein.gif
Фильм потрясающий. После просмотра действительно есть о чем подумать.

_________________
Что толку, если не можешь сделать мир лучше?
ioann777
Стаж: 12 лет 9 мес.
Сообщений: 45
Ratio: 33.52
100%
russia.gif
Спасибо автору!!!!
SHD_RUS
Стаж: 11 лет 5 мес.
Сообщений: 53
Ratio: 7.78
100%
супер беру
artur_sp
Стаж: 13 лет 1 мес.
Сообщений: 23
Ratio: 0.432
0%
russia.gif
coffease писал(а): Перейти к сообщению
фильм на 1 раз посмотреть. стреляшка-бомбашка для 15летних подростков
Тогда смотри ТВ-3
Показать сообщения:   
Начать новую тему   Ответить на тему    Торрент-трекер NNM-Club -> Зарубежное кино -> Зарубежные Фильмы (HD, FHD) Часовой пояс: GMT + 3
Страница 1 из 1