Классический форум-трекер
canvas not supported
Нас вместе: 4 205 728

Возвращение Фантоцци / Fantozzi - Il ritorno (1996) DVDRip


 
 
RSS
Начать новую тему   Ответить на тему    Торрент-трекер NNM-Club -> Архив торрентов -> Архив Видео
Автор Сообщение
alyuka ®
Стаж: 15 лет 1 мес.
Сообщений: 77
Ratio: 5.479
Поблагодарили: 255
45.45%
russia.gif
Возвращение Фантоцци / Fantozzi - Il ritorno (1996) DVDRip
Год выпуска: 1996
Производство: Италия
Жанр: Комедия

Описание фильма:
Фантоцци не может жить без приключений. В этой серии внучку Фантоцци похищают, требуя выкуп, Фантоцци бросается на ее поиски; наговаривает в сексе по телефону огромные суммы; синьора Сильвани хочет сделать пластическую операцию и под видом беременной от него, Фантоцци требует денег; бухгалтера сажают в тюрьму…

Режиссер: Нери Паренти
Актеры: Паоло Вилладжо, Милена Вукотич, Жижи Редер, Мария Кристина Макка, Маурицио Маттиоли, Антонио Аллочча, Серджо Гибелло, Паоло Паолони, Нелло Вивие, Фабио Траверса

Перевод: Одноголосый закадровый
Субтитры: Нет



Дата мировой премьеры: 20 декабря 1996

Продолжительность: 01:36:36
Качество видео: DVDRip

Видеокодек: XviD
Битрейт видео: ~871 Кбит/с
Размер кадра: 608х448
аудио: MP3, 2 ch, 128 Кбит/с
General
Complete name : E:\Возвращение Фантоцци\Fantozzi - Il ritorno(Возвращение Фантоцци).avi
Format : AVI
Format/Info : Audio Video Interleave
File size : 697 MiB
Duration : 1h 36mn
Overall bit rate : 1 008 Kbps
Writing application : VirtualDubMod 1.5.4.1 (build 2066/release)
Writing library : VirtualDubMod build 2066/release

Video
ID : 0
Format : MPEG-4 Visual
Format profile : Simple@L3
Format settings, BVOP : No
Format settings, QPel : No
Format settings, GMC : No warppoints
Format settings, Matrix : Default (H.263)
Codec ID : XVID
Codec ID/Hint : XviD
Duration : 1h 36mn
Bit rate : 871 Kbps
Width : 608 pixels
Height : 448 pixels
Display aspect ratio : 4:3
Frame rate : 25.000 fps
Color space : YUV
Chroma subsampling : 4:2:0
Bit depth : 8 bits
Scan type : Progressive
Compression mode : Lossy
Bits/(Pixel*Frame) : 0.128
Stream size : 602 MiB (86%)
Writing library : XviD 1.0.0 RC1 (Niltze) (UTC 2004-01-26)

Audio
ID : 1
Format : MPEG Audio
Format version : Version 1
Format profile : Layer 3
Mode : Joint stereo
Mode extension : MS Stereo
Codec ID : 55
Codec ID/Hint : MP3
Duration : 1h 36mn
Bit rate mode : Constant
Bit rate : 128 Kbps
Channel(s) : 2 channels
Sampling rate : 48.0 KHz
Compression mode : Lossy
Stream size : 88.4 MiB (13%)
Alignment : Aligned on interleaves
Interleave, duration : 40 ms (1.00 video frame)
Interleave, preload duration : 504 ms
Скриншоты:

Фантоцци на NNM-Club
Время раздачи: 24/7 - круглосуточно
Возвращение Фантоцци.torrent
 Торрент: Платиновая раздача  Зарегистрирован
 
Скачать


 Зарегистрирован:   31 Окт 2007 23:06:22
 Размер:   697 MB  (
 Рейтинг:   4.9 (Голосов: 18)
 Поблагодарили:   59
 Проверка:   Оформление проверено модератором 01 Ноя 2007 11:50:55
Как cкачать  ·  Как раздать  ·  Правильно оформить  ·  Поднять ратио!  
Топик был перенесен из форума Зарубежные Фильмы (HD*Rip/LQ, DVDRip, SATRip, VHSRip) в форум Архив Видео

Причина переноса: Последний раз раздающий был замечен более 6 месяцев назад.

Исправил релиз - напиши ЛС FREEDONOR, дав ссылку на релиз.
Если нет ответа 24 часа - нажми на кнопку "Обратить внимание модераторов".
Показать сообщения:   
Начать новую тему   Ответить на тему    Торрент-трекер NNM-Club -> Архив торрентов -> Архив Видео Часовой пояс: GMT + 3
Страница 1 из 1