Классический форум-трекер
canvas not supported
Нас вместе: 4 210 635

Кот в сапогах: Три Чертенка / Puss in Boots: The Three Diablos (2011) BDRip


 
 
RSS
Начать новую тему   Ответить на тему    Торрент-трекер NNM-Club -> Мультфильмы -> Зарубежные Мультфильмы 21-го века (SD)
Автор Сообщение
svlesin ®
RG Releasers
Релизер 25000+ Uploader 300+
Стаж: 13 лет
Сообщений: 33818
Ratio: 2039.018
Поблагодарили: 3266477
100%
russia.gif
Кот в сапогах: Три Чертенка / Puss in Boots: The Three Diablos (2011) BDRip
Русское название: Кот в сапогах: Три Чертенка
Оригинальное название: Puss in Boots: The Three Diablos
Год выпуска: 2011
Жанр: Мультфильм, комедия, приключения, семейный
Страна: США

Описание фильма:
Кот в сапогах отправляется на поиск рубина, украденного из короны принцессы пресловутым Французским вором Виспере. Его сопровождают три маленьких котенка, три Дьяволенка, Кот должен приручить их, прежде чем поставить под угрозу миссию.

Режиссер: Роман Хюи

Продолжительность: 00:13:05

Перевод: Любительский (одноголосый) - Доцент

Субтитры: Русские, английские (отдельными файлами, отключаемые)

Видеокодек: Xvid
Битрейт видео: ~2101 kbps
Размер кадра: 704 x 400
Качество видео: BDRip
Аудио RUS: AC3, 6.0 (Front: L C R, Side: L R, LFE), 448 kbps
Аудио ENG: AC3, 6.0 (Front: L C R, Side: L R, LFE), 448 kbps
Формат : AVI
Формат/Информация : Audio Video Interleave
Размер файла : 282 Мбайт
Продолжительность : 13 м.
Общий поток : 3011 Кбит/сек
Название фильма : Kot.V.Sapogah.Tri.Chertenka.2011.DUAL.BDRip.XviD.AC3.-HELLYWOOD
Режиссёр : Gummy
Программа кодирования : VirtualDubMod 1.5.10.2 (build 2542/release)
Правообладатель : http://forum.hellywood.ru/forum.php

Видео
Идентификатор : 0
Формат : MPEG-4 Visual
Профиль формата : Advanced Simple@L5
Параметр BVOP формата : 2
Параметр QPel формата : Нет
Параметр GMC формата : Без точки перехода
Параметр матрицы формата : Выборочная
Идентификатор кодека : XVID
Идентификатор кодека/Подсказка : XviD
Продолжительность : 13 м.
Битрейт : 2101 Кбит/сек
Ширина : 704 пикселя
Высота : 400 пикселей
Соотношение сторон : 16:9
Частота кадров : 23,976 кадра/сек
Цветовое пространство : YUV
Субдискретизация насыщенности : 4:2:0
Битовая глубина : 8 бит
Тип развёртки : Прогрессивная
Метод сжатия : С потерями
Бит/(Пиксели*Кадры) : 0.311
Размер потока : 197 Мбайт (70%)
Библиотека кодирования : XviD 65

Аудио #1
Идентификатор : 1
Формат : AC-3
Формат/Информация : Audio Coding 3
Расширение режима : CM (complete main)
Идентификатор кодека : 2000
Продолжительность : 13 м.
Вид битрейта : Постоянный
Битрейт : 448 Кбит/сек
Каналы : 6 каналов
Расположение каналов : Front: L C R, Side: L R, LFE
Частота : 48,0 КГц
Битовая глубина : 16 бит
Метод сжатия : С потерями
Размер потока : 41,9 Мбайт (15%)
Выравнивание : Разделение по промежуткам
Продолжительность промежутка : 42 мс. (1,00 видеокадр)
Время предзагрузки промежутка : 500 мс.

Аудио #2
Идентификатор : 2
Формат : AC-3
Формат/Информация : Audio Coding 3
Расширение режима : CM (complete main)
Идентификатор кодека : 2000
Продолжительность : 13 м.
Вид битрейта : Постоянный
Битрейт : 448 Кбит/сек
Каналы : 6 каналов
Расположение каналов : Front: L C R, Side: L R, LFE
Частота : 48,0 КГц
Битовая глубина : 16 бит
Метод сжатия : С потерями
Размер потока : 41,9 Мбайт (15%)
Выравнивание : Разделение по промежуткам
Продолжительность промежутка : 42 мс. (1,00 видеокадр)
Время предзагрузки промежутка : 500 мс.

Общее
Полное имя : C:\[1]\Мультфильмы\Кот в сапогах. Три Чертенка - Puss in Boots. The Three Diablos (2011)\Kot.V.Sapogah.Tri.Chertenka.2011.DUAL.BDRip.XviD.AC3.-HELLYWOOD.ENG.srt
Размер файла : 8,81 Кбайт

Общее
Полное имя : C:\[1]\Мультфильмы\Кот в сапогах. Три Чертенка - Puss in Boots. The Three Diablos (2011)\Kot.V.Sapogah.Tri.Chertenka.2011.DUAL.BDRip.XviD.AC3.-HELLYWOOD.RUS.srt
Размер файла : 12,1 Кбайт
Скриншоты:
Время раздачи: 24/7. До первых 5 скачавших.
 Торрент: Платиновая раздача  Зарегистрирован
 
Скачать


 Зарегистрирован:   22 Фев 2012 16:12:40
 Размер:   282 MB  (
 Рейтинг:   4.7 (Голосов: 44)
 Поблагодарили:   156
 Проверка:   Оформление проверено модератором 22 Фев 2012 17:01:42
Как cкачать  ·  Как раздать  ·  Правильно оформить  ·  Поднять ратио!  

_________________
Уважаемые пользователи Клуба! От меня релизов больше не будет. Спасибо всем, кто благодарил меня и говорил/нажимал «Спасибо»!
GAVsi
Стаж: 12 лет 10 мес.
Сообщений: 712
Ratio: 51.94
Раздал: 37.43 TB
Поблагодарили: 1907
100%
Откуда: Volgograd
ussr.gif
Приятная штука!
В отличии от продукции соотечественников... :(
Показать сообщения:   
Начать новую тему   Ответить на тему    Торрент-трекер NNM-Club -> Мультфильмы -> Зарубежные Мультфильмы 21-го века (SD) Часовой пояс: GMT + 3
Страница 1 из 1