Классический форум-трекер
canvas not supported
Нас вместе: 4 210 635

Кот в сапогах: Три Чертенка / Puss in Boots: The Three Diablos (2011) [1080p] BDRip


 
 
RSS
Начать новую тему   Ответить на тему    Торрент-трекер NNM-Club -> Мультфильмы -> Зарубежные Мультфильмы 21-го века (HD, FHD, UHD)
Автор Сообщение
Zov72 ®
Стаж: 12 лет 10 мес.
Сообщений: 4743
Ratio: 110.504
Поблагодарили: 608403
100%
Откуда: Вольный кабан
wild_hogs.gif
Кот в сапогах: Три Чертенка / Puss in Boots: The Three Diablos (2011) BDRip
Русское название: Кот в сапогах: Три Чертенка
Оригинальное название: Puss in Boots: The Three Diablos
Год выпуска: 2011
Жанр: Мультфильм, комедия, приключения, семейный
Страна: США

Описание:
Кот в сапогах отправляется на поиск рубина, украденного из короны принцессы пресловутым Французским вором Виспере. Его сопровождают три маленьких котенка, три Дьяволенка. Кот должен приручить их, прежде чем поставить под угрозу миссию.

Режиссер: Роман Хюи
Персонажи: Кот в сапогах и котята

Продолжительность: 00:13:05
Перевод: Любительский (одноголосый) [Доцент]
Субтитры: Русский, английский, французский, испанский

Видеокодек: MPEG-4 AVC/H.264
Битрейт видео: ~11900 Kbit/s
Размер кадра: 1920x1080
Качество видео: BDRip
Аудио 1: AC3, 48.0 KHz, 6 channels, 640 Kbps - VO [Доцент]
Аудио 2: AC3, 48.0 KHz, 6 channels, 640 Kbps - ENG [Оригинал]
Код:

General
Complete name                    : G:\Кот в сапогах Три Чертенка  2011.1080p.mkv
Format                           : Matroska
File size                        : 1.23 GiB
Duration                         : 13mn 5s
Overall bit rate                 : 13.4 Mbps
Movie name                       : Puss in Boots: The Three Diablos (2011) - EbP
Encoded date                     : UTC 2012-02-20 12:27:45
Writing application              : mkvmerge v5.0.1 ('Es ist Sommer') built on Oct  9 2011 11:55:43
Writing library                  : libebml v1.2.2 + libmatroska v1.3.0

Video
ID                               : 1
Format                           : AVC
Format/Info                      : Advanced Video Codec
Format profile                   : High@L4.1
Format settings, CABAC           : Yes
Format settings, ReFrames        : 4 frames
Muxing mode                      : Container profile=Unknown@4.1
Codec ID                         : V_MPEG4/ISO/AVC
Duration                         : 13mn 4s
Bit rate                         : 11.9 Mbps
Width                            : 1 920 pixels
Height                           : 1 080 pixels
Display aspect ratio             : 16:9
Frame rate                       : 23.976 fps
Resolution                       : 8 bits
Colorimetry                      : 4:2:0
Scan type                        : Progressive
Bits/(Pixel*Frame)               : 0.239
Stream size                      : 1.09 GiB (88%)
Writing library                  : x264 core 120 r2146 bcd41db
Encoding settings                : cabac=1 / ref=4 / deblock=1:-3:-3 / analyse=0x3:0x113 / me=tesa / subme=10 / psy=1 / psy_rd=0.80:0.00 / mixed_ref=1 / me_range=16 / chroma_me=1 / trellis=2 / 8x8dct=1 / cqm=0 / deadzone=21,11 / fast_pskip=0 / chroma_qp_offset=-2 / threads=12 / sliced_threads=0 / nr=0 / decimate=0 / interlaced=0 / bluray_compat=0 / constrained_intra=0 / bframes=6 / b_pyramid=2 / b_adapt=2 / b_bias=0 / direct=3 / weightb=1 / open_gop=0 / weightp=2 / keyint=250 / keyint_min=23 / scenecut=40 / intra_refresh=0 / rc=crf / mbtree=0 / crf=17.2 / qcomp=0.50 / qpmin=0 / qpmax=69 / qpstep=4 / ip_ratio=1.40 / pb_ratio=1.30 / aq=1:0.90
Matrix coefficients              : BT.709-5, BT.1361, IEC 61966-2-4 709, SMPTE RP177

Audio #1
ID                               : 2
Format                           : AC-3
Format/Info                      : Audio Coding 3
Codec ID                         : A_AC3
Duration                         : 13mn 5s
Bit rate mode                    : Constant
Bit rate                         : 640 Kbps
Channel(s)                       : 6 channels
Channel positions                : Front: L C R, Surround: L R, LFE
Sampling rate                    : 48.0 KHz
Stream size                      : 59.9 MiB (5%)
Title                            : Доцент
Language                         : Russian

Audio #2
ID                               : 3
Format                           : AC-3
Format/Info                      : Audio Coding 3
Codec ID                         : A_AC3
Duration                         : 13mn 5s
Bit rate mode                    : Constant
Bit rate                         : 640 Kbps
Channel(s)                       : 6 channels
Channel positions                : Front: L C R, Surround: L R, LFE
Sampling rate                    : 48.0 KHz
Stream size                      : 59.9 MiB (5%)
Title                            : Eng

Text #1
ID                               : 4
Format                           : UTF-8
Codec ID                         : S_TEXT/UTF8
Codec ID/Info                    : UTF-8 Plain Text
Title                            : Доцент
Language                         : Russian

Text #2
ID                               : 5
Format                           : UTF-8
Codec ID                         : S_TEXT/UTF8
Codec ID/Info                    : UTF-8 Plain Text
Title                            : Eng

Text #3
ID                               : 6
Format                           : UTF-8
Codec ID                         : S_TEXT/UTF8
Codec ID/Info                    : UTF-8 Plain Text
Title                            : Fre
Language                         : French

Text #4
ID                               : 7
Format                           : UTF-8
Codec ID                         : S_TEXT/UTF8
Codec ID/Info                    : UTF-8 Plain Text
Title                            : Spa
Language                         : Spanish


Cкриншоты из фильма:




Приятного просмотра
и не забываем говорить СПАСИБО...

Время раздачи: 24/7
до 15 скачавших..
 Торрент: Золотая раздача  Зарегистрирован
 
Зарегистрируйтесь и скачайте торрент!
12.8 KB

Примагнититься
 Зарегистрирован:   26 Фев 2012 07:57:48
 Размер:   1.23 GB  (
 Рейтинг:   4.7 (Голосов: 17)
 Поблагодарили:   82
 Проверка:   Оформление проверено модератором 26 Фев 2012 11:07:43
Как cкачать  ·  Как раздать  ·  Правильно оформить  ·  Поднять ратио!  
Zov72 ®
Стаж: 12 лет 10 мес.
Сообщений: 4743
Ratio: 110.504
Поблагодарили: 608403
100%
Откуда: Вольный кабан
wild_hogs.gif
ой, пока этот выкладывал уже с двухголоской увидел, счас залью...
Кот в сапогах: Три Чертенка / Puss in Boots: The Three Diablos (2011) [1080p] BDRip

_________________
Мне чужого не надо….Но свое я заберу, чье бы оно ни было!!!
jesterdemon
Стаж: 11 лет 8 мес.
Сообщений: 44
Ratio: 44.369
100%
russia.gif
1.23 гига за 13 минут... жирновато... Качать дольше чем смотреть )
Oops_Smile
Стаж: 12 лет 8 мес.
Сообщений: 1542
Ratio: 51.516
Раздал: 56.87 TB
Поблагодарили: 48423
100%
Откуда: Симферополь
jesterdemon писал(а): Перейти к сообщению
1.23 гига за 13 минут... жирновато... Качать дольше чем смотреть )

кому как

_________________
Мои раздачи
Владимир48Кл
Стаж: 10 лет 10 мес.
Сообщений: 4
Ratio: 5.64
14.84%
jesterdemon писал(а): Перейти к сообщению
1.23 гига за 13 минут... жирновато... Качать дольше чем смотреть )

можно и поболее весом найти..на любителя..
:супер!:
vladimirn
Стаж: 12 лет 10 мес.
Сообщений: 239
Ratio: 5.357
0.09%
ukraine.gif
качается 12мин. что это за скорости у людей.меньше чем 5-10мбит вообще нету. говорят что долго. странно как то
aforte
Uploader 100+
Стаж: 12 лет 10 мес.
Сообщений: 2280
Ratio: 238.448
Раздал: 142.9 TB
100%
Откуда: тилимилитрямдия
witch.png
vladimirn писал(а): Перейти к сообщению
качается 12мин. что это за скорости у людей.меньше чем 5-10мбит вообще нету. говорят что долго. странно как то

ну развеселил!!! ср. скорость по россии - 2,2мегабита. :лол:
за релиз спасибо! :супер!:
Показать сообщения:   
Начать новую тему   Ответить на тему    Торрент-трекер NNM-Club -> Мультфильмы -> Зарубежные Мультфильмы 21-го века (HD, FHD, UHD) Часовой пояс: GMT + 3
Страница 1 из 1