Классический форум-трекер
canvas not supported
Нас вместе: 4 210 909

Кот в сапогах: Три Чертенка / Puss in Boots: The Three Diablos (2011) [1080p] BDRip


 
 
RSS
Начать новую тему   Ответить на тему    Торрент-трекер NNM-Club -> Мультфильмы -> Зарубежные Мультфильмы 21-го века (HD, FHD, UHD)
Автор Сообщение
Zov72 ®
Стаж: 12 лет 10 мес.
Сообщений: 4743
Ratio: 110.504
Поблагодарили: 608403
100%
Откуда: Вольный кабан
wild_hogs.gif
Кот в сапогах: Три Чертенка / Puss in Boots: The Three Diablos (2011) BDRip
Русское название: Кот в сапогах: Три Чертенка
Оригинальное название: Puss in Boots: The Three Diablos
Год выпуска: 2011
Жанр: Мультфильм, комедия, приключения, семейный
Страна: США

Описание:
Кот в сапогах отправляется на поиск рубина, украденного из короны принцессы пресловутым Французским вором Виспере. Его сопровождают три маленьких котенка, три Дьяволенка. Кот должен приручить их, прежде чем поставить под угрозу миссию.

Режиссер: Роман Хюи
Персонажи: Кот в сапогах и котята

Продолжительность: 00:13:05
Перевод: Любительский двухголосый [Jetvis Studio & студия "КиНаТаН"]
Субтитры: Русский, английский

Видеокодек: MPEG-4 AVC/H.264
Битрейт видео: ~11900 Kbit/s
Размер кадра: 1920x1080
Качество видео: BDRip
Аудио 1: AC-3, 448 Кбит/сек 6 каналов, 48,0 КГц - Русский двухголосый
Аудио 2: AC-3, 448 Кбит/сек 6 каналов, 48,0 КГц - Оригинальная дорожка
Аудио 3: AC-3, 192 Кбит/сек 2 канала, 48,0 КГц - Украинский двухголосый
Сэмпл: Скачать
Код:

General
Complete name                    : C:\Users\SerG\Downloads\Кот в сапогах Три Чертенка  2011.1080p.mkv
Format                           : Matroska
File size                        : 1.21 GiB
Duration                         : 13mn 5s
Overall bit rate                 : 13.2 Mbps
Encoded date                     : UTC 2012-02-25 16:07:00
Writing application              : mkvmerge v4.2.0 ('No Talking') сборка от Jul 28 2010 18:38:23
Writing library                  : libebml v1.0.0 + libmatroska v1.0.0

Video
ID                               : 1
Format                           : AVC
Format/Info                      : Advanced Video Codec
Format profile                   : High@L4.1
Format settings, CABAC           : Yes
Format settings, ReFrames        : 4 frames
Muxing mode                      : Container profile=Unknown@4.1
Codec ID                         : V_MPEG4/ISO/AVC
Duration                         : 13mn 4s
Bit rate                         : 11.9 Mbps
Width                            : 1 920 pixels
Height                           : 1 080 pixels
Display aspect ratio             : 16:9
Frame rate                       : 23.976 fps
Resolution                       : 8 bits
Colorimetry                      : 4:2:0
Scan type                        : Progressive
Bits/(Pixel*Frame)               : 0.239
Stream size                      : 1.09 GiB (90%)
Writing library                  : x264 core 120 r2146 bcd41db
Encoding settings                : cabac=1 / ref=4 / deblock=1:-3:-3 / analyse=0x3:0x113 / me=tesa / subme=10 / psy=1 / psy_rd=0.80:0.00 / mixed_ref=1 / me_range=16 / chroma_me=1 / trellis=2 / 8x8dct=1 / cqm=0 / deadzone=21,11 / fast_pskip=0 / chroma_qp_offset=-2 / threads=12 / sliced_threads=0 / nr=0 / decimate=0 / interlaced=0 / bluray_compat=0 / constrained_intra=0 / bframes=6 / b_pyramid=2 / b_adapt=2 / b_bias=0 / direct=3 / weightb=1 / open_gop=0 / weightp=2 / keyint=250 / keyint_min=23 / scenecut=40 / intra_refresh=0 / rc=crf / mbtree=0 / crf=17.2 / qcomp=0.50 / qpmin=0 / qpmax=69 / qpstep=4 / ip_ratio=1.40 / pb_ratio=1.30 / aq=1:0.90
Matrix coefficients              : BT.709-5, BT.1361, IEC 61966-2-4 709, SMPTE RP177

Audio #1
ID                               : 2
Format                           : AC-3
Format/Info                      : Audio Coding 3
Codec ID                         : A_AC3
Duration                         : 13mn 5s
Bit rate mode                    : Constant
Bit rate                         : 448 Kbps
Channel(s)                       : 6 channels
Channel positions                : Front: L C R, Surround: L R, LFE
Sampling rate                    : 48.0 KHz
Stream size                      : 41.9 MiB (3%)
Language                         : Russian

Audio #2
ID                               : 3
Format                           : AC-3
Format/Info                      : Audio Coding 3
Codec ID                         : A_AC3
Duration                         : 13mn 5s
Bit rate mode                    : Constant
Bit rate                         : 448 Kbps
Channel(s)                       : 6 channels
Channel positions                : Front: L C R, Surround: L R, LFE
Sampling rate                    : 48.0 KHz
Stream size                      : 41.9 MiB (3%)

Audio #3
ID                               : 4
Format                           : AC-3
Format/Info                      : Audio Coding 3
Codec ID                         : A_AC3
Duration                         : 13mn 5s
Bit rate mode                    : Constant
Bit rate                         : 192 Kbps
Channel(s)                       : 2 channels
Channel positions                : L R
Sampling rate                    : 48.0 KHz
Stream size                      : 18.0 MiB (1%)

Text #1
ID                               : 5
Format                           : UTF-8
Codec ID                         : S_TEXT/UTF8
Codec ID/Info                    : UTF-8 Plain Text
Language                         : Russian

Text #2
ID                               : 6
Format                           : UTF-8
Codec ID                         : S_TEXT/UTF8
Codec ID/Info                    : UTF-8 Plain Text


Cкриншоты из фильма:




Приятного просмотра
и не забываем говорить СПАСИБО...

Время раздачи: 24/7
до 15 скачавших..
 Торрент: Платиновая раздача  Зарегистрирован
 
Скачать


Примагнититься
 Зарегистрирован:   26 Фев 2012 08:24:33
 Размер:   1.21 GB  (
 Рейтинг:   4.7 (Голосов: 31)
 Поблагодарили:   142
 Проверка:   Оформление проверено модератором 26 Фев 2012 11:06:48
Как cкачать  ·  Как раздать  ·  Правильно оформить  ·  Поднять ратио!  
danilkina
Стаж: 12 лет 8 мес.
Сообщений: 29
Ratio: 104.804
Раздал: 7.4 TB
100%
Откуда: МОСКВА
russia.gif
Большое спасибо! Заценим.

_________________
vladimirn
Стаж: 12 лет 10 мес.
Сообщений: 239
Ratio: 5.357
0.09%
ukraine.gif
жуткий перевод
Владимир48Кл
Стаж: 10 лет 10 мес.
Сообщений: 4
Ratio: 5.64
14.84%
vladimirn писал(а): Перейти к сообщению
жуткий перевод

меня вполне устроил, лучше чем одногорлоска...
Показать сообщения:   
Начать новую тему   Ответить на тему    Торрент-трекер NNM-Club -> Мультфильмы -> Зарубежные Мультфильмы 21-го века (HD, FHD, UHD) Часовой пояс: GMT + 3
Страница 1 из 1