Классический форум-трекер
canvas not supported
Нас вместе: 4 210 635

Кот в сапогах: Три Чертенка / Puss in Boots: The Three Diablos (2011) [720p] BDRip


 
 
RSS
Начать новую тему   Ответить на тему    Торрент-трекер NNM-Club -> Мультфильмы -> Зарубежные Мультфильмы 21-го века (HD, FHD, UHD)
Автор Сообщение
Zov72 ®
Стаж: 12 лет 10 мес.
Сообщений: 4743
Ratio: 110.504
Поблагодарили: 608403
100%
Откуда: Вольный кабан
wild_hogs.gif
Кот в сапогах: Три Чертенка / Puss in Boots: The Three Diablos (2011) BDRip
Русское название: Кот в сапогах: Три Чертенка
Оригинальное название: Puss in Boots: The Three Diablos
Год выпуска: 2011
Жанр: Мультфильм, комедия, приключения, семейный
Страна: США

Описание:
Кот в сапогах отправляется на поиск рубина, украденного из короны принцессы пресловутым Французским вором Виспере. Его сопровождают три маленьких котенка, три Дьяволенка. Кот должен приручить их, прежде чем поставить под угрозу миссию.

Режиссер: Роман Хюи
Персонажи: Кот в сапогах и котята



Продолжительность: 00:13:05
Перевод: Любительский двухголосый [Jetvis Studio & студия "КиНаТаН"]
Субтитры: Русский, английский

Видеокодек: MPEG-4 AVC/H.264
Битрейт видео: ~5753 Kbit/s
Размер кадра: 1280х720
Качество видео: BDRip
Аудио #1: AC-3 at 448 Кбит/сек 6 каналов, 48,0 КГц - русский
Аудио #2: AC-3 at 448 Кбит/сек 6 каналов, 48,0 КГц - английский
Сэмпл: Скачать
Код:

General
Complete name                    : C:\Users\SerG\Downloads\Кот в сапогах Три Чертенка.mkv
Format                           : Matroska
File size                        : 643 MiB
Duration                         : 13mn 14s
Overall bit rate                 : 6 784 Kbps
Movie name                       : Puss in Boots: The Three Diablos
Encoded date                     : UTC 2012-02-25 08:35:38
Writing application              : mkvmerge v4.6.0 ('Still Crazy After All These Years') сборка от Mar 10 2011 02:50:32
Writing library                  : libebml v1.2.0 + libmatroska v1.1.0

Video
ID                               : 1
Format                           : AVC
Format/Info                      : Advanced Video Codec
Format profile                   : High@L4.1
Format settings, CABAC           : Yes
Format settings, ReFrames        : 5 frames
Muxing mode                      : Container profile=Unknown@4.1
Codec ID                         : V_MPEG4/ISO/AVC
Duration                         : 13mn 14s
Bit rate                         : 5 753 Kbps
Nominal bit rate                 : 5 963 Kbps
Width                            : 1 280 pixels
Height                           : 720 pixels
Display aspect ratio             : 16:9
Frame rate                       : 23.976 fps
Resolution                       : 8 bits
Colorimetry                      : 4:2:0
Scan type                        : Progressive
Bits/(Pixel*Frame)               : 0.260
Stream size                      : 545 MiB (85%)
Writing library                  : x264 core 120 r2164 da19765
Encoding settings                : cabac=1 / ref=5 / deblock=1:0:0 / analyse=0x3:0x113 / me=umh / subme=7 / psy=1 / psy_rd=1.00:0.00 / mixed_ref=1 / me_range=32 / chroma_me=1 / trellis=2 / 8x8dct=1 / cqm=0 / deadzone=21,11 / fast_pskip=0 / chroma_qp_offset=-2 / threads=12 / sliced_threads=0 / nr=0 / decimate=1 / interlaced=0 / bluray_compat=0 / constrained_intra=0 / bframes=3 / b_pyramid=2 / b_adapt=2 / b_bias=0 / direct=1 / weightb=1 / open_gop=0 / weightp=0 / keyint=230 / keyint_min=23 / scenecut=40 / intra_refresh=0 / rc_lookahead=50 / rc=2pass / mbtree=1 / bitrate=5963 / ratetol=1.0 / qcomp=0.60 / qpmin=0 / qpmax=69 / qpstep=4 / cplxblur=20.0 / qblur=0.5 / vbv_maxrate=40000 / vbv_bufsize=30000 / nal_hrd=none / ip_ratio=1.40 / aq=1:1.00
Color primaries                  : BT.709-5, BT.1361, IEC 61966-2-4, SMPTE RP177
Transfer characteristics         : BT.709-5, BT.1361
Matrix coefficients              : BT.709-5, BT.1361, IEC 61966-2-4 709, SMPTE RP177

Audio #1
ID                               : 2
Format                           : AC-3
Format/Info                      : Audio Coding 3
Codec ID                         : A_AC3
Duration                         : 13mn 14s
Bit rate mode                    : Constant
Bit rate                         : 448 Kbps
Channel(s)                       : 6 channels
Channel positions                : Front: L C R, Surround: L R, LFE
Sampling rate                    : 48.0 KHz
Stream size                      : 42.4 MiB (7%)
Language                         : Russian

Audio #2
ID                               : 3
Format                           : AC-3
Format/Info                      : Audio Coding 3
Codec ID                         : A_AC3
Duration                         : 13mn 14s
Bit rate mode                    : Constant
Bit rate                         : 448 Kbps
Channel(s)                       : 6 channels
Channel positions                : Front: L C R, Surround: L R, LFE
Sampling rate                    : 48.0 KHz
Stream size                      : 42.4 MiB (7%)

Text #1
ID                               : 4
Format                           : UTF-8
Codec ID                         : S_TEXT/UTF8
Codec ID/Info                    : UTF-8 Plain Text
Language                         : Russian

Text #2
ID                               : 5
Format                           : UTF-8
Codec ID                         : S_TEXT/UTF8
Codec ID/Info                    : UTF-8 Plain Text


Cкриншоты из фильма:




Приятного просмотра
и не забываем говорить СПАСИБО...

Время раздачи: 24/7
до 15 скачавших..
 Торрент: Золотая раздача  Зарегистрирован
 
Зарегистрируйтесь и скачайте торрент!
13 KB

Примагнититься
 Зарегистрирован:   26 Фев 2012 11:26:30
 Размер:   643 MB  (
 Рейтинг:   4.5 (Голосов: 27)
 Поблагодарили:   132
 Проверка:   Оформление проверено модератором 26 Фев 2012 22:14:34
Как cкачать  ·  Как раздать  ·  Правильно оформить  ·  Поднять ратио!  
Zov72 ®
Стаж: 12 лет 10 мес.
Сообщений: 4743
Ratio: 110.504
Поблагодарили: 608403
100%
Откуда: Вольный кабан
wild_hogs.gif
Отличие от этой - Кот в сапогах: Три Чертенка / Puss in Boots: The Three Diablos (2011) [720p] BDRip
двухголосый перевод лучшего качества..

_________________
Мне чужого не надо….Но свое я заберу, чье бы оно ни было!!!
batonchik
RG Releasers
Котоаплоадер 10 PB+
Почетный Куратор Видео
Стаж: 14 лет 9 мес.
Сообщений: 26013
Ratio: 71K
Раздал: 13.04 PB
Поблагодарили: 1419952
100%
Откуда: СССР
ussr.gif
Zov72
Рейтинг добавьте.
Показать сообщения:   
Начать новую тему   Ответить на тему    Торрент-трекер NNM-Club -> Мультфильмы -> Зарубежные Мультфильмы 21-го века (HD, FHD, UHD) Часовой пояс: GMT + 3
Страница 1 из 1