Классический форум-трекер
canvas not supported
Нас вместе: 4 172 092

Yanni - Live At El Morro, Puerto Rico (2011) HDTV [1080i]


 
 
RSS
Начать новую тему   Ответить на тему    Торрент-трекер NNM-Club -> Театр и Музыкальное видео -> Концерты (HD, FHD, UHD, 3D)
Автор Сообщение
tiger012 ®
Стаж: 11 лет 2 мес.
Сообщений: 43
Ratio: 138.641
Поблагодарили: 1636
100%
Откуда: Одесса
ukraine.gif
Yanni - Live At El Morro, Puerto Rico (2011) HDTV[1080i]
Оригинальное название: Yanni - Live At El Morro, Puerto Rico
Год выпуска: 2011
Жанр: New Age

Описание фильма:
16 и 17декабря 2011года, Янни исполнил 20-летний мечту выступить в красивом и историческом месте 16-го века Кастильо Сан-Фелипе дель Морро в Сан-Хуане, Пуэрто-Рико. Были исполнены многие классические хиты Yanni, так же как несколько новых произведений . Его музыка уникальна, равно как и состав его оркестра, объединяющий прекрасных музыкантов.

Режиссер: Yanni
Актеры: Оркестр и вокалисты Lisa Lavie , Lauren Jelencovich
Треклист

01. Opening (Standing In Motion)
02. Truth of Touch
03. Vertigo
04. End of August
05. Rain Must Fall
06. Felitsa
07. Voyage
Просмотр доступен только для зарегистрированных пользователей
Продолжительность: 00:57:27
Перевод: Отсутствует
Язык: Английский

Дата мировой премьеры: 16.12.2011

Видеокодек: MPEG-2
Битрейт видео: ~14.9 Mbps
Размер кадра: 1920x1080
Качество видео: HDTV
Аудиокодек: AC3 5.1
Битрейт аудио: 384 Kbps
Сэмпл: Ссылка
General
ID : 1 (0x1)
Complete name : E:\Yanni.Live.at.El.Morro.2011.PBS.1080i.HDTV.MPEG2.DD5.1-CtrlHD.ts
Format : MPEG-TS
File size : 6.44 GiB
Duration : 57mn 26s
Overall bit rate : 16.1 Mbps

Video
ID : 33 (0x21)
Menu ID : 1 (0x1)
Format : MPEG Video
Format version : Version 2
Format profile : Main@High
Format settings, BVOP : Yes
Format settings, Matrix : Custom
Codec ID : 2
Duration : 57mn 26s
Bit rate mode : Variable
Bit rate : 14.9 Mbps
Maximum bit rate : 38.8 Mbps
Width : 1 920 pixels
Height : 1 080 pixels
Display aspect ratio : 16:9
Frame rate : 29.970 fps
Color space : YUV
Chroma subsampling : 4:2:0
Bit depth : 8 bits
Scan type : Interlaced
Scan order : Top Field First
Compression mode : Lossy
Bits/(Pixel*Frame) : 0.239
Stream size : 5.97 GiB (93%)

Audio
ID : 36 (0x24)
Menu ID : 1 (0x1)
Format : AC-3
Format/Info : Audio Coding 3
Mode extension : CM (complete main)
Codec ID : 129
Duration : 57mn 26s
Bit rate mode : Constant
Bit rate : 384 Kbps
Channel(s) : 6 channels
Channel positions : Front: L C R, Side: L R, LFE
Sampling rate : 48.0 KHz
Bit depth : 16 bits
Compression mode : Lossy
Stream size : 158 MiB (2%)
Language : English

Text #1
ID : 33 (0x21)-608-1
Menu ID : 1 (0x1)
Format : EIA-608
Muxing mode : A/53 / DTVCC Transport
Muxing mode, more info : Muxed in Video #1
Duration : 57mn 26s
Stream size : 0.00 Byte (0%)

Text #2
ID : 33 (0x21)-1
Menu ID : 1 (0x1)
Format : EIA-708
Muxing mode : A/53 / DTVCC Transport
Muxing mode, more info : Muxed in Video #1
Duration : 57mn 26s
Stream size : 0.00 Byte (0%)
Скриншоты:


Время раздачи: 24/7.
[NNM-Club.ru]_Yanni.Live.at.El.Morro.2011.PBS.1080i.HDTV.MPEG2.DD5.1-CtrlHD.ts.torrent
 Торрент: Платиновая раздача  Зарегистрирован
 
Скачать


 Зарегистрирован:   08 Мар 2012 21:00:04
 Размер:   6.44 GB  (
 Рейтинг:   4.9 (Голосов: 60)
 Поблагодарили:   202
 Проверка:   Оформление проверено модератором 09 Мар 2012 15:28:39
Как cкачать  ·  Как раздать  ·  Правильно оформить  ·  Поднять ратио!  
sined1
Стаж: 12 лет 1 мес.
Сообщений: 92
Ratio: 4.852
100%
Раздающему - огромное спасибо!
donnightman
Стаж: 10 лет
Сообщений: 85
Ratio: 55.084
Раздал: 16.48 TB
Поблагодарили: 12
100%
witch.png
Божественная музыка музыкальной группы «Yanni» — исполняющей музыку в инструментальном стиле и её основателя: прекрасного, талантливого композитора и исполнителя Янни Хрисомаллиса! :клево: :ура:
Suonatore
Стаж: 11 лет
Сообщений: 270
Ratio: 4.417
Поблагодарили: 86
100%
Откуда: Noginsk-grad
russia.gif
Бесподобно!

_________________
Завет бабы Ванги: - Не борись с дураками - они не больно страшны, не пробуй их исправить или изменить. Куда страшнее придурки. Они готовы преподнести такое, что может весь народ взбудоражить.
balbe3
Стаж: 10 лет 4 мес.
Сообщений: 39
Ratio: 1.694
100%
ussr.gif
Совершенно потрясающе! Они все как-будто играют друг с другом в какую-то игру, и рождается удивительнейшая музыка! А Nightingale - это просто абсолютно слов нет, какая вещь!
Огромное спасибо раздающему за такой подарок!
vv07
Стаж: 14 лет 4 мес.
Сообщений: 122
Ratio: 26.552
0.05%
russia.gif
Раздайте пожалуйста
sanek-ilim
Стаж: 9 лет 1 мес.
Сообщений: 4
Ratio: 1.362
0.42%
russia.gif
Встаньте на раздачу
Показать сообщения:   
Начать новую тему   Ответить на тему    Торрент-трекер NNM-Club -> Театр и Музыкальное видео -> Концерты (HD, FHD, UHD, 3D) Часовой пояс: GMT + 3
Страница 1 из 1