Классический форум-трекер
canvas not supported
Нас вместе: 4 210 636

Кот в сапогах: Три Чертенка / Puss in Boots: The Three Diablos (2011) HDRip [Лицензия]


 
 
RSS
Начать новую тему   Ответить на тему    Торрент-трекер NNM-Club -> Мультфильмы -> Зарубежные Мультфильмы 21-го века (SD)
Автор Сообщение
svlesin ®
RG Releasers
Релизер 25000+ Uploader 300+
Стаж: 13 лет
Сообщений: 33818
Ratio: 2039.019
Поблагодарили: 3266477
100%
russia.gif
Кот в сапогах: Три Чертенка / Puss in Boots: The Three Diablos (2011) HDRip [Лицензия]
Русское название: Кот в сапогах: Три Чертенка
Оригинальное название: Puss in Boots: The Three Diablos
Год выпуска: 2011
Жанр: Мультфильм, комедия, приключения, семейный
Страна: США

Описание фильма:
Кот в сапогах отправляется на поиск рубина, украденного из короны принцессы пресловутым Французским вором Виспере. Его сопровождают три маленьких котенка, три Дьяволенка, Кот должен приручить их, прежде чем поставить под угрозу миссию.

Режиссер: Роман Хюи

Продолжительность: 00:13:05

Перевод: Дублированный [лицензия]

Видеокодек: Xvid
Битрейт видео: ~1824 kbps
Размер кадра: 720 x 400
Качество видео: HDRip
Аудио RUS: AC3, 6.0 (Front: L C R, Side: L R, LFE), 448 kbps
Аудио ENG: AC3, 6.0 (Front: L C R, Side: L R, LFE), 448 kbps

Формат : AVI
Формат/Информация : Audio Video Interleave
Размер файла : 256 Мбайт
Продолжительность : 13 м.
Общий поток : 2732 Кбит/сек
Программа кодирования : VirtualDubMod 1.5.10.2 (build 2540/release)

Видео
Идентификатор : 0
Формат : MPEG-4 Visual
Профиль формата : Simple@L3
Параметр BVOP формата : Нет
Параметр QPel формата : Нет
Параметр GMC формата : Без точки перехода
Параметр матрицы формата : Default (H.263)
Идентификатор кодека : XVID
Идентификатор кодека/Подсказка : XviD
Продолжительность : 13 м.
Битрейт : 1824 Кбит/сек
Ширина : 720 пикселей
Высота : 400 пикселей
Соотношение сторон : 16:9
Частота кадров : 23,976 кадра/сек
Цветовое пространство : YUV
Субдискретизация насыщенности : 4:2:0
Битовая глубина : 8 бит
Тип развёртки : Прогрессивная
Метод сжатия : С потерями
Бит/(Пиксели*Кадры) : 0.264
Размер потока : 171 Мбайт (67%)
Библиотека кодирования : XviD 64

Аудио #1
Идентификатор : 1
Формат : AC-3
Формат/Информация : Audio Coding 3
Расширение режима : CM (complete main)
Идентификатор кодека : 2000
Продолжительность : 13 м.
Вид битрейта : Постоянный
Битрейт : 448 Кбит/сек
Каналы : 6 каналов
Расположение каналов : Front: L C R, Side: L R, LFE
Частота : 48,0 КГц
Битовая глубина : 16 бит
Метод сжатия : С потерями
Размер потока : 41,9 Мбайт (16%)
Выравнивание : Разделение по промежуткам
Продолжительность промежутка : 42 мс. (1,00 видеокадр)
Время предзагрузки промежутка : 500 мс.

Аудио #2
Идентификатор : 2
Формат : AC-3
Формат/Информация : Audio Coding 3
Расширение режима : CM (complete main)
Идентификатор кодека : 2000
Продолжительность : 13 м.
Вид битрейта : Постоянный
Битрейт : 448 Кбит/сек
Каналы : 6 каналов
Расположение каналов : Front: L C R, Side: L R, LFE
Частота : 48,0 КГц
Битовая глубина : 16 бит
Метод сжатия : С потерями
Размер потока : 41,9 Мбайт (16%)
Выравнивание : Разделение по промежуткам
Продолжительность промежутка : 69 мс. (1,65 видеокадра)
Время предзагрузки промежутка : 548 мс.
Скриншоты:
Время раздачи: 24/7. До первых 5 скачавших.
 Торрент: Платиновая раздача  Зарегистрирован
 
Скачать


 Зарегистрирован:   13 Мар 2012 09:34:04
 Размер:   256 MB  (
 Рейтинг:   4.9 (Голосов: 92)
 Поблагодарили:   414
 Проверка:   Оформление проверено модератором 13 Мар 2012 11:05:49
Как cкачать  ·  Как раздать  ·  Правильно оформить  ·  Поднять ратио!  

_________________
Уважаемые пользователи Клуба! От меня релизов больше не будет. Спасибо всем, кто благодарил меня и говорил/нажимал «Спасибо»!
fuad95
Стаж: 12 лет
Сообщений: 18
Ratio: 2.323
100%
Жалко, что короткий!
AlexiSSG
Uploader 100+ Реставратор
 
Стаж: 12 лет 2 мес.
Сообщений: 7269
Ratio: 161.387
Поблагодарили: 11764
100%
ussr.gif
Классный мульт, спс
skeit856
Стаж: 12 лет 7 мес.
Сообщений: 561
Ratio: 6.929
Раздал: 4.21 TB
100%
Откуда: Липецк
russia.gif
thanks for cartoon!
Валя43
Стаж: 11 лет 11 мес.
Сообщений: 2
Ratio: 0.998
100%
russia.gif
Мультик просто СУПЕР!!! СПАСИБОООООО!!!
Lex_xl
Только чтение
Стаж: 11 лет 8 мес.
Сообщений: 1047
Ratio: 105.936
Поблагодарили: 46
15%
Откуда: я, блин, знаю?
cod4.gif
Наконец Дубляж, спасибо!
Показать сообщения:   
Начать новую тему   Ответить на тему    Торрент-трекер NNM-Club -> Мультфильмы -> Зарубежные Мультфильмы 21-го века (SD) Часовой пояс: GMT + 3
Страница 1 из 1