Классический форум-трекер
canvas not supported
Нас вместе: 4 231 866

Train - 8 альбомов (1998-2012) Дискография [FLAC|Lossless]<Pop-Rock,Roots rock>


 
 
RSS
Начать новую тему   Ответить на тему    Торрент-трекер NNM-Club -> Rock, Alternative, Punk, Metal -> Rock (Lossless)
Автор Сообщение
PhantomAVG ®
Стаж: 13 лет 2 мес.
Сообщений: 1487
Ratio: 6.898
Раздал: 2.746 TB
Поблагодарили: 13970
100%
Откуда: страна пиратия
pirates.png
Train - Дискография (1998-2012)

Год: 1998-2009
Жанр: Pop-Rock,Roots rock
Продолжительность: 06:23:15
Кодек: FLAC
Битрейт: Lossless


Трек лист:
Продолжительность: 00:39:49

01. This'll Be My Year
02. Drive By
03. Feels Good At First
04. Bruises
05. 50 Ways To Say Goodbye
06. You Can Finally Meet My Mom
07. Sing Together
08. Mermaid
09. California 37
10. We Were Made For This
11. When The Fog Rolls In
Код: выделить все
Exact Audio Copy V1.0 beta 3 from 29. August 2011

EAC extraction logfile from 25. April 2012, 22:04

Train / California 37

Used drive  : ASUS    DRW-2014L1T   Adapter: 1  ID: 0

Read mode               : Secure
Utilize accurate stream : Yes
Defeat audio cache      : Yes
Make use of C2 pointers : No

Read offset correction                      : 6
Overread into Lead-In and Lead-Out          : No
Fill up missing offset samples with silence : Yes
Delete leading and trailing silent blocks   : No
Null samples used in CRC calculations       : Yes
Used interface                              : Native Win32 interface for Win NT & 2000
Gap handling                                : Appended to previous track

Used output format              : User Defined Encoder
Selected bitrate                : 1024 kBit/s
Quality                         : High
Add ID3 tag                     : No
Command line compressor         : C:\Program Files (x86)\Exact Audio Copy\Flac\flac.exe
Additional command line options : -8 -V -T "ARTIST=%artist%" -T "TITLE=%title%" -T "ALBUM=%albumtitle%" -T "DATE=%year%" -T "TRACKNUMBER=%tracknr%" -T "GENRE=%genre%" -T "PERFORMER=%albuminterpret%" -T "COMPOSER=%composer%" %haslyrics%--tag-from-file=LYRICS="%lyricsfile%"%haslyrics% -T "ALBUMARTIST=%albumartist%" -T "DISCNUMBER=%cdnumber%" -T "TOTALDISCS=%totalcds%" -T "TOTALTRACKS=%numtracks%" -T "COMMENT=%comment%" %source% -o %dest%

TOC of the extracted CD

     Track |   Start  |  Length  | Start sector | End sector
    ---------------------------------------------------------
        1  |  0:00.00 |  3:30.04 |         0    |    15753
        2  |  3:30.04 |  3:15.73 |     15754    |    30451
        3  |  6:46.02 |  3:02.73 |     30452    |    44174
        4  |  9:49.00 |  3:51.59 |     44175    |    61558
        5  | 13:40.59 |  4:07.71 |     61559    |    80154
        6  | 17:48.55 |  4:40.04 |     80155    |   101158
        7  | 22:28.59 |  3:25.62 |    101159    |   116595
        8  | 25:54.46 |  3:16.70 |    116596    |   131365
        9  | 29:11.41 |  2:12.31 |    131366    |   141296
       10  | 31:23.72 |  4:03.55 |    141297    |   159576
       11  | 35:27.52 |  4:21.57 |    159577    |   179208

Track  1

     Filename d:\wave dumps\01 - This'll Be My Year.wav

     Pre-gap length  0:00:02.00

     Peak level 99.9 %
     Extraction speed 5.6 X
     Track quality 100.0 %
     Test CRC A4C37D2A
     Copy CRC A4C37D2A
     Track not present in AccurateRip database
     Copy OK

Track  2

     Filename d:\wave dumps\02 - Drive By.wav

     Peak level 99.9 %
     Extraction speed 6.0 X
     Track quality 100.0 %
     Test CRC F84BC1D1
     Copy CRC F84BC1D1
     Track not present in AccurateRip database
     Copy OK

Track  3

     Filename d:\wave dumps\03 - Feels Good At First.wav

     Peak level 99.9 %
     Extraction speed 6.3 X
     Track quality 100.0 %
     Test CRC 95ECD281
     Copy CRC 95ECD281
     Track not present in AccurateRip database
     Copy OK

Track  4

     Filename d:\wave dumps\04 - Bruises.wav

     Peak level 98.8 %
     Extraction speed 7.0 X
     Track quality 100.0 %
     Test CRC 0849AE95
     Copy CRC 0849AE95
     Track not present in AccurateRip database
     Copy OK

Track  5

     Filename d:\wave dumps\05 - 50 Ways To Say Goodbye.wav

     Peak level 98.8 %
     Extraction speed 7.4 X
     Track quality 100.0 %
     Test CRC CEA1CDA6
     Copy CRC CEA1CDA6
     Track not present in AccurateRip database
     Copy OK

Track  6

     Filename d:\wave dumps\06 - You Can Finally Meet My Mom.wav

     Peak level 99.9 %
     Extraction speed 8.0 X
     Track quality 100.0 %
     Test CRC 77E25376
     Copy CRC 77E25376
     Track not present in AccurateRip database
     Copy OK

Track  7

     Filename d:\wave dumps\07 - Sing Together.wav

     Peak level 98.8 %
     Extraction speed 5.9 X
     Track quality 99.9 %
     Test CRC 2D6EE137
     Copy CRC 2D6EE137
     Track not present in AccurateRip database
     Copy OK

Track  8

     Filename d:\wave dumps\08 - Mermaid.wav

     Peak level 98.8 %
     Extraction speed 8.3 X
     Track quality 100.0 %
     Test CRC DBCCC451
     Copy CRC DBCCC451
     Track not present in AccurateRip database
     Copy OK

Track  9

     Filename d:\wave dumps\09 - California 37.wav

     Peak level 99.9 %
     Extraction speed 7.8 X
     Track quality 100.0 %
     Test CRC 9CF3952D
     Copy CRC 9CF3952D
     Track not present in AccurateRip database
     Copy OK

Track 10

     Filename d:\wave dumps\10 - We Were Made For This.wav

     Peak level 98.8 %
     Extraction speed 8.9 X
     Track quality 100.0 %
     Test CRC BFDEBB78
     Copy CRC BFDEBB78
     Track not present in AccurateRip database
     Copy OK

Track 11

     Filename d:\wave dumps\11 - When The Fog Rolls In.wav

     Peak level 99.9 %
     Extraction speed 9.4 X
     Track quality 100.0 %
     Test CRC 372D3DF9
     Copy CRC 372D3DF9
     Track not present in AccurateRip database
     Copy OK

None of the tracks are present in the AccurateRip database

No errors occurred

End of status report

==== Log checksum 39256DE946D6987889761DDDCE1783353BD038E0783F52C3A0796E4E361FADCF ====
Код: выделить все
-----------------------

DON'T MODIFY THIS FILE

-----------------------

PERFORMER: auCDtect Task Manager, ver. 1.5.1RC6 build 1.5.1.7
Copyright (c) 2008-2010 y-soft. All rights reserved
http://y-soft.org

ANALYZER: auCDtect: CD records authenticity detector, version 0.8.2
Copyright (c) 2004 Oleg Berngardt. All rights reserved.
Copyright (c) 2004 Alexander Djourik. All rights reserved.

FILE: 11 - When The Fog Rolls In.flac
  Size: 30910767 Hash: DC0EC72A0F5219E3C13F0FF4C05358D8 Accuracy: -m0
  Conclusion: CDDA 100%
  Signature: 0D3F434376B502A04E2159908300C9D9F5C680CB
FILE: 10 - We Were Made For This.flac
  Size: 25886058 Hash: F16714F974C21A0F88C89C4656D988E1 Accuracy: -m0
  Conclusion: CDDA 100%
  Signature: 8DD3C99A34946E51A688D17A10766EFA9FA51482
FILE: 09 - California 37.flac
  Size: 14877758 Hash: 2F928B4890359E6679F33380D5CD937A Accuracy: -m0
  Conclusion: CDDA 100%
  Signature: 7691CDC2FBFB27410EAB8917E853918093C6E9BA
FILE: 08 - Mermaid.flac
  Size: 26279434 Hash: C27523D6450A7F64B58DE77AB5ECC784 Accuracy: -m0
  Conclusion: CDDA 100%
  Signature: 7979201AEDFFFDCFAE11BB5F9F022FCAAE11A281
FILE: 07 - Sing Together.flac
  Size: 20771085 Hash: D00B9296A136578053EC7A998C29B470 Accuracy: -m0
  Conclusion: CDDA 100%
  Signature: 5035DEC4A3EE3D22314A0FD5C5C039DBEBB9BD6A
FILE: 06 - You Can Finally Meet My Mom.flac
  Size: 33552477 Hash: 6AF6DB254FC7C190197214C003B1355A Accuracy: -m0
  Conclusion: CDDA 100%
  Signature: 21967C8CFEF5F93FFC150197EE469DE476788289
FILE: 05 - 50 Ways To Say Goodbye.flac
  Size: 33344426 Hash: 90FC77596640794ACE4E7293F19026E3 Accuracy: -m0
  Conclusion: CDDA 100%
  Signature: 8FD74593FB5E5C497A3BF1638EEBA28EC2EAA685
FILE: 04 - Bruises.flac
  Size: 29468484 Hash: 713830C3F7A87250419B0F7D7715214A Accuracy: -m0
  Conclusion: CDDA 100%
  Signature: F25CB305322553F80D88AAB42A13392997986DFE
FILE: 03 - Feels Good At First.flac
  Size: 18800448 Hash: 4D54FF7B5FB445E548F3B8B60C6E5592 Accuracy: -m0
  Conclusion: CDDA 100%
  Signature: 669205E6CFC0833A00D9C0E419373D81FE1AE399
FILE: 02 - Drive By.flac
  Size: 25941347 Hash: 842BD29A82DF4D83F628D2D30ABDB054 Accuracy: -m0
  Conclusion: CDDA 100%
  Signature: F1FC8AC9EF9EFE8601FE057F3AA11F5443E992BD
FILE: 01 - This'll Be My Year.flac
  Size: 26083229 Hash: EC0A8B32545DB895CDBA51759E59FADA Accuracy: -m0
  Conclusion: CDDA 100%
  Signature: 28D1C2110AD59C79A0F3BC3AF9C167A3E001E454





Время раздачи: Круглосуточно


Поглощение/вытеснение
Только с согласия релизера

J_Man
Train[nnm-club.ru].torrent
 Торрент: Платиновая раздача  Зарегистрирован
 
Скачать


 Зарегистрирован:   24 Авг 2012 22:12:01
 Размер:   2.51 GB  (
 Рейтинг:   4.7 (Голосов: 24)
 Поблагодарили:   47
 Проверка:   Оформление проверено модератором 25 Авг 2012 12:15:18
Как cкачать  ·  Как раздать  ·  Правильно оформить  ·  Поднять ратио!  
PhantomAVG ®
Стаж: 13 лет 2 мес.
Сообщений: 1487
Ratio: 6.898
Раздал: 2.746 TB
Поблагодарили: 13970
100%
Откуда: страна пиратия
pirates.png
Релиз обновлён. Добавлен альбом "California 37".
Poweruss
 
Стаж: 12 лет 3 мес.
Сообщений: 2390
Ratio: 98.297
Поблагодарили: 27707
100%
Откуда: точно не знаю.
nnm-club.gif
PhantomAVG, спасибо! :клево: Хорошая команда, играющая добротно сделанную и при том - интересную музыку.
Timam
Стаж: 14 лет
Сообщений: 5
Ratio: 10.386
100%
ukraine.gif
Спасибо за зборку. очень нравиться. дайте качнуть !
Показать сообщения:   
Начать новую тему   Ответить на тему    Торрент-трекер NNM-Club -> Rock, Alternative, Punk, Metal -> Rock (Lossless) Часовой пояс: GMT + 3
Страница 1 из 1