Классический форум-трекер
canvas not supported
Нас вместе: 4 210 858

Игра престолов / Game of Thrones (Сезон 2 полный (10)) (2012) HDTVRip (Wolrone)


Страницы:  1, 2, 3, 4  След. 
 
RSS
Начать новую тему   Ответить на тему    Торрент-трекер NNM-Club -> Архив торрентов -> Архив Сериалов и Архив Старого многосерийного кино до 90-х
Автор Сообщение
TollayaEkb ®
Стаж: 12 лет 8 мес.
Сообщений: 5732
Ratio: 1251.335
Раздал: 117.4 TB
Поблагодарили: 222970
100%
Откуда: Екб
russia.gif
Игра престолов / Game of Thrones
(Сезон 2, серии 01-10 из 10) (2012) HDTVRip (Wolrone)

Русское название: Игра престолов
Оригинальное название: Game of Thrones
Год выхода: 2012
Производство: США, HBO, Television 360, Grok! Studio
Жанр: Драма, фэнтази
Сезон: 2
Серии: 01-10 из 10 серий
Продолжительность: ~ 00:55:00 мин серия


Перевод: Любительский одноголосый закадровый - Wolrone

Режиссер: Тимоти Ван Паттен, Брайан Кирк, Даниэль Минахан, Алан Тейлор
В ролях: Шон Бин, Питер Динклэйдж, Марк Эдди, Николай Костер-Валдау, Мишель Фэйрли, Лена Хиди, Эмилия Кларк, Иэн Глен, Эйдан Гиллен и др.

Описание:
К концу подходит время благоденствия, и лето, длившееся несколько десятилетий, угасает. Вокруг средоточия власти Семи королевств, Железного трона, зреет заговор, и в это непростое время король решает искать поддержки у друга юности Эддарда Старка (Шон Бин). В мире, где все — от короля до наемника — рвутся к власти, плетут интриги и готовы вонзить нож в спину, есть место и благородству, состраданию и любви. Между тем, никто не замечает пробуждение тьмы из легенд далеко на Севере — и лишь Стена защищает живых к югу от нее.
Между древней ледяной Стеной и пламенем навсегда ушедших из мира драконов разворачивается «Игра престолов» — долгожданная экранизация культовой саги Джорджа Р. Р. Мартина «Песнь льда и пламени».



Качество: HDTVRip
Видео: MPEG-4 AVC, 720x404 pixels, 23.976 fps, 822 Kbps, 0.102 bit/pixel
Аудио: AAC, 48.0 KHz, 2 channels, 102 Kbps (RU)

| Сэмпл видео | Все раздачи|
Format : MPEG-4
Codec ID : M4V
File size : 306 MiB
Duration : 55mn 9s
Overall bit rate mode : Variable
Overall bit rate : 776 Kbps
Video
ID : 1
Format : AVC
Format/Info : Advanced Video Codec
Format profile : Main@L3.1
Format settings, CABAC : No
Format settings, ReFrames : 2 frames
Codec ID : avc1
Codec ID/Info : Advanced Video Coding
Duration : 55mn 9s
Bit rate mode : Constant
Bit rate : 709 Kbps
Nominal bit rate : 822 Kbps
Width : 720 pixels
Height : 404 pixels
Display aspect ratio : 16:9
Frame rate mode : Constant
Frame rate : 23.976 fps
Standard : NTSC
Color space : YUV
Chroma subsampling : 4:2:0
Bit depth : 8 bits
Scan type : Progressive
Bits/(Pixel*Frame) : 0.102
Stream size : 280 MiB (91%)
Audio
ID : 2
Format : AAC
Format/Info : Advanced Audio Codec
Format profile : LC
Codec ID : 40
Duration : 55mn 9s
Source duration : 55mn 9s
Bit rate mode : Variable
Bit rate : 61.4 Kbps
Maximum bit rate : 102 Kbps
Channel(s) : 2 channels
Channel positions : Front: L R
Sampling rate : 48.0 KHz
Compression mode : Lossy
Stream size : 24.2 MiB (8%)
Source stream size : 24.2 MiB (8%)

<<<Скриншоты>>>

Время раздачи: 24/7 - круглосуточно (до первых сидов - потом по возможности)
 Торрент: Платиновая раздача  Зарегистрирован
 
Скачать


 Зарегистрирован:   04 Июн 2012 21:52:51
 Размер:   4.21 GB  (
 Рейтинг:   4.7 (Голосов: 175)
 Поблагодарили:   571
 Проверка:   Оформление проверено модератором 04 Июн 2012 22:42:01
Как cкачать  ·  Как раздать  ·  Правильно оформить  ·  Поднять ратио!  
Artyr4ik92
Стаж: 12 лет
Сообщений: 72
Ratio: 1.724
Поблагодарили: 752
100%
ukraine.gif
СУПЕР! СПАСИБО!
TollayaEkb ®
Стаж: 12 лет 8 мес.
Сообщений: 5732
Ratio: 1251.335
Раздал: 117.4 TB
Поблагодарили: 222970
100%
Откуда: Екб
russia.gif
Добавлена 2 серия. Перекачайте торрент
bodik
Стаж: 13 лет 9 мес.
Сообщений: 68
Ratio: 6.054
84.5%
ukraine.gif
Машина времени? по расписанию выход второй серии - 08.04.2012 :нет:
war2906
Стаж: 15 лет 2 мес.
Сообщений: 284
Ratio: 1.492
Раздал: 423 GB
Поблагодарили: 3058
100%
russia.gif
судя по всему первой стал 22 минутный видеообзор )

_________________
Dn 490 Кб/с, Up <128Кб/с
MrKramer
Стаж: 10 лет 11 мес.
Сообщений: 440
Ratio: 27.333
Раздал: 13.51 TB
Поблагодарили: 2998
9.84%
russia.gif
Думаю глянуть.. как данный сериал по сравнению с Мерлином ?
coder99
Стаж: 11 лет 6 мес.
Сообщений: 7
Ratio: 5.936
6.97%
Мерлин нервно курит в сторонке
DJein
Стаж: 14 лет 10 мес.
Сообщений: 48
Ratio: 4.967
100%
Откуда: Балтика-Киев
lithuania.gif
bodik, утечка была, вторая серия в сети уже 2-е суток - не меньше, только в оригинальной озвучке.

TollayaEkb, респэкт!

_________________
Worthy belief...
MeDBeDb.
Стаж: 11 лет 9 мес.
Сообщений: 244
Ratio: 7.472
Раздал: 39.15 TB
100%
Откуда: Иркутск
russia.gif
Ребят,а субтитров ещё нет?
ShumSimpson
Стаж: 12 лет 4 мес.
Сообщений: 1
Ratio: 49.749
100%
gabon.gif
Хороший сериал)))) Автор молодец)))))
badydoc
Стаж: 13 лет 1 мес.
Сообщений: 27
Ratio: 12.112
1.12%
russia.gif
спасибо!!!
Паша734
Стаж: 11 лет 5 мес.
Сообщений: 3
Ratio: 1.909
Поблагодарили: 68
1.85%
Перевод хороший, ничего не скажешь, но озвучка это что то с чем то. Я конечно понимаю что сложно читать диалоги в быстром темпе, но черт подери! Wolrone!!! Побольше самокритичности! Не получилось с первого раза четко, без прожевывания слов, всегда есть второй и третий! Ну правда, в половине диалогов приходится просто догадываться о чем идет речь.. В первой серии и то лучше получилось
eurospeed
Стаж: 13 лет 7 мес.
Сообщений: 27
Ratio: 15.422
0.26%
Буду ждать нормального многоголосного перевода.
kaltherz
Стаж: 11 лет
Сообщений: 103
Ratio: 3.857
100%
я бы скачал если бы было с оригинальной дорогой, а тут дешевый перевод только
inspector78
Стаж: 13 лет 3 мес.
Сообщений: 128
Ratio: 15.538
Поблагодарили: 1628
33.96%
russia.gif
когда следующая?

_________________
-----
Смейся - и весь мир будет смеяться вместе с тобой, плачь - и ты будешь плакать в одиночестве.
Показать сообщения:   
Начать новую тему   Ответить на тему    Торрент-трекер NNM-Club -> Архив торрентов -> Архив Сериалов и Архив Старого многосерийного кино до 90-х Часовой пояс: GMT + 3
Страницы:  1, 2, 3, 4  След.
Страница 1 из 4