Классический форум-трекер
canvas not supported
Нас вместе: 4 231 863

Scorpions - 2 альбома (1974-1975) [FLAC 2.0 24/192 | tracks (VinylRip)]<hard-rock, heavy-metal>


 
 
RSS
Начать новую тему   Ответить на тему    Торрент-трекер NNM-Club -> HD Audio и Многоканальная Музыка -> Vinyl-Rip и Hand-Made
Автор Сообщение
PhantomAVG ®
Стаж: 13 лет 2 мес.
Сообщений: 1487
Ratio: 6.898
Раздал: 2.746 TB
Поблагодарили: 13970
100%
Откуда: страна пиратия
pirates.png

Scorpions - 2 альбома (1974-1975)

Год: 1974-1975
Жанр: hard-rock, heavy-metal
Страна: Германия
Продолжительность: 01:28:26
Кодек: FLAC
Битрейт: Lossless
Аудио: 24 бит / 192 кГц

Легендарная немецкая рок-группа, образована в 1965 году в Ганновере.
Стиль группы можно определить как классический хэви-металл(хард-рок), также для «Scorpions» характерны лирические рок-баллады. Является одной из самых популярных групп на мировой рок-сцене, продавшей более 100 миллионов копий альбомов.
Секретом группы является замечательный голос вокалиста Клауса Майне, и потрясающая техника игры лид-гитариста Маттиаса Ябса. "Fly to the Rainbow" и "In Trance" были одними из самых первых их альбомов. Именно они показали путь дальнейшего развития Scorpions и их уникальный стиль — необычайно мощные риффы, витиеватые гитарные соло и мелодические вокальные линии.


Трек лист:

Частота: 192 kHZ
Разрядность: 24 bit
Продолжительность: 00:40:54

01. Speedy's Coming
02. They Need A Million
03. Drifting Sun
04. Fly People Fly
05. This Is My Song
06. Far Away
07. Fly To The Rainbow
Код:
Общее
Полное имя                               : D:\Scorpions-VinylRip. Fly To The Rainbow & In Trance_FLAC.Tracks.LosslesS[nnmclub.to]\1974 - Fly To The Rainbow\1. Speedy's Coming.flac
Формат                                   : FLAC
Формат/Информация                        : Free Lossless Audio Codec
Размер файла                             : 144 Мбайт
Продолжительность                        : 3 м. 37 с.
Режим общего битрейта                    : Переменный
Общий поток                              : 5554 Кбит/сек
Альбом                                   : Fly To The Rainbow
Трек                                     : Speedy's Coming
Трек/Положение                           : 1
Трек/Всего                               : 7
Исполнитель                              : Scorpions
Жанр                                     : Hard Rock
Дата записи                              : 1974

Аудио
Формат                                   : FLAC
Формат/Информация                        : Free Lossless Audio Codec
Продолжительность                        : 3 м. 37 с.
Вид битрейта                             : Переменный
Битрейт                                  : 5554 Кбит/сек
Каналы                                   : 2 канала
Частота                                  : 192 КГц
Битовая глубина                          : 24 бит
Размер потока                            : 144 Мбайт (100%)
Библиотека кодирования                   : libFLAC 1.2.1 (UTC 2007-09-17)

Код:
Общее
Полное имя                               : D:\Scorpions-VinylRip. Fly To The Rainbow & In Trance_FLAC.Tracks.LosslesS[nnmclub.to]\1974 - Fly To The Rainbow\2. They Need A Million.flac
Формат                                   : FLAC
Формат/Информация                        : Free Lossless Audio Codec
Размер файла                             : 189 Мбайт
Продолжительность                        : 4 м. 53 с.
Режим общего битрейта                    : Переменный
Общий поток                              : 5390 Кбит/сек
Альбом                                   : Fly To The Rainbow
Трек                                     : They Need A Million
Трек/Положение                           : 2
Трек/Всего                               : 7
Исполнитель                              : Scorpions
Жанр                                     : Hard Rock
Дата записи                              : 1974

Аудио
Формат                                   : FLAC
Формат/Информация                        : Free Lossless Audio Codec
Продолжительность                        : 4 м. 53 с.
Вид битрейта                             : Переменный
Битрейт                                  : 5390 Кбит/сек
Каналы                                   : 2 канала
Частота                                  : 192 КГц
Битовая глубина                          : 24 бит
Размер потока                            : 189 Мбайт (100%)
Библиотека кодирования                   : libFLAC 1.2.1 (UTC 2007-09-17)

Код:
Общее
Полное имя                               : D:\Scorpions-VinylRip. Fly To The Rainbow & In Trance_FLAC.Tracks.LosslesS[nnmclub.to]\1974 - Fly To The Rainbow\3. Drifting Sun.flac
Формат                                   : FLAC
Формат/Информация                        : Free Lossless Audio Codec
Размер файла                             : 302 Мбайт
Продолжительность                        : 7 м. 41 с.
Режим общего битрейта                    : Переменный
Общий поток                              : 5498 Кбит/сек
Альбом                                   : Fly To The Rainbow
Трек                                     : Drifting Sun
Трек/Положение                           : 3
Трек/Всего                               : 7
Исполнитель                              : Scorpions
Жанр                                     : Hard Rock
Дата записи                              : 1974

Аудио
Формат                                   : FLAC
Формат/Информация                        : Free Lossless Audio Codec
Продолжительность                        : 7 м. 41 с.
Вид битрейта                             : Переменный
Битрейт                                  : 5498 Кбит/сек
Каналы                                   : 2 канала
Частота                                  : 192 КГц
Битовая глубина                          : 24 бит
Размер потока                            : 302 Мбайт (100%)
Библиотека кодирования                   : libFLAC 1.2.1 (UTC 2007-09-17)

Код:
Общее
Полное имя                               : D:\Scorpions-VinylRip. Fly To The Rainbow & In Trance_FLAC.Tracks.LosslesS[nnmclub.to]\1974 - Fly To The Rainbow\4. Fly People Fly.flac
Формат                                   : FLAC
Формат/Информация                        : Free Lossless Audio Codec
Размер файла                             : 197 Мбайт
Продолжительность                        : 5 м. 3 с.
Режим общего битрейта                    : Переменный
Общий поток                              : 5453 Кбит/сек
Альбом                                   : Fly To The Rainbow
Трек                                     : Fly People Fly
Трек/Положение                           : 4
Трек/Всего                               : 7
Исполнитель                              : Scorpions
Жанр                                     : Hard Rock
Дата записи                              : 1974

Аудио
Формат                                   : FLAC
Формат/Информация                        : Free Lossless Audio Codec
Продолжительность                        : 5 м. 3 с.
Вид битрейта                             : Переменный
Битрейт                                  : 5453 Кбит/сек
Каналы                                   : 2 канала
Частота                                  : 192 КГц
Битовая глубина                          : 24 бит
Размер потока                            : 197 Мбайт (100%)
Библиотека кодирования                   : libFLAC 1.2.1 (UTC 2007-09-17)

Код:
Общее
Полное имя                               : D:\Scorpions-VinylRip. Fly To The Rainbow & In Trance_FLAC.Tracks.LosslesS[nnmclub.to]\1974 - Fly To The Rainbow\5. This Is My Song.flac
Формат                                   : FLAC
Формат/Информация                        : Free Lossless Audio Codec
Размер файла                             : 167 Мбайт
Продолжительность                        : 4 м. 17 с.
Режим общего битрейта                    : Переменный
Общий поток                              : 5423 Кбит/сек
Альбом                                   : Fly To The Rainbow
Трек                                     : This Is My Song
Трек/Положение                           : 5
Трек/Всего                               : 7
Исполнитель                              : Scorpions
Жанр                                     : Hard Rock
Дата записи                              : 1974

Аудио
Формат                                   : FLAC
Формат/Информация                        : Free Lossless Audio Codec
Продолжительность                        : 4 м. 17 с.
Вид битрейта                             : Переменный
Битрейт                                  : 5423 Кбит/сек
Каналы                                   : 2 канала
Частота                                  : 192 КГц
Битовая глубина                          : 24 бит
Размер потока                            : 167 Мбайт (100%)
Библиотека кодирования                   : libFLAC 1.2.1 (UTC 2007-09-17)

Код:
Общее
Полное имя                               : D:\Scorpions-VinylRip. Fly To The Rainbow & In Trance_FLAC.Tracks.LosslesS[nnmclub.to]\1974 - Fly To The Rainbow\6. Far Away.flac
Формат                                   : FLAC
Формат/Информация                        : Free Lossless Audio Codec
Размер файла                             : 214 Мбайт
Продолжительность                        : 5 м. 42 с.
Режим общего битрейта                    : Переменный
Общий поток                              : 5248 Кбит/сек
Альбом                                   : Fly To The Rainbow
Трек                                     : Far Away
Трек/Положение                           : 6
Трек/Всего                               : 7
Исполнитель                              : Scorpions
Жанр                                     : Hard Rock
Дата записи                              : 1974

Аудио
Формат                                   : FLAC
Формат/Информация                        : Free Lossless Audio Codec
Продолжительность                        : 5 м. 42 с.
Вид битрейта                             : Переменный
Битрейт                                  : 5248 Кбит/сек
Каналы                                   : 2 канала
Частота                                  : 192 КГц
Битовая глубина                          : 24 бит
Размер потока                            : 214 Мбайт (100%)
Библиотека кодирования                   : libFLAC 1.2.1 (UTC 2007-09-17)

Код:
Общее
Полное имя                               : D:\Scorpions-VinylRip. Fly To The Rainbow & In Trance_FLAC.Tracks.LosslesS[nnmclub.to]\1974 - Fly To The Rainbow\7. Fly To The Rainbow.flac
Формат                                   : FLAC
Формат/Информация                        : Free Lossless Audio Codec
Размер файла                             : 361 Мбайт
Продолжительность                        : 9 м. 38 с.
Режим общего битрейта                    : Переменный
Общий поток                              : 5225 Кбит/сек
Альбом                                   : Fly To The Rainbow
Трек                                     : Fly To The Rainbow
Трек/Положение                           : 7
Трек/Всего                               : 7
Исполнитель                              : Scorpions
Жанр                                     : Hard Rock
Дата записи                              : 1974

Аудио
Формат                                   : FLAC
Формат/Информация                        : Free Lossless Audio Codec
Продолжительность                        : 9 м. 38 с.
Вид битрейта                             : Переменный
Битрейт                                  : 5225 Кбит/сек
Каналы                                   : 2 канала
Частота                                  : 192 КГц
Битовая глубина                          : 24 бит
Размер потока                            : 361 Мбайт (100%)
Библиотека кодирования                   : libFLAC 1.2.1 (UTC 2007-09-17)



Частота: 192 kHZ
Разрядность: 24 bit
Продолжительность: 00:37:32

01. Dark Lady
02. In Trance
03. Life's Like A River
04. Top Of The Bill
05. Living And Dying
06. Robot Man
07. Evening Wind
08. Sun In My Hand
09. Longing For Fire
10. Night Lights
Код:
Общее
Полное имя                               : D:\Scorpions-VinylRip. Fly To The Rainbow & In Trance_FLAC.Tracks.LosslesS[nnmclub.to]\1975 - In Trance\01. Dark Lady.flac
Формат                                   : FLAC
Формат/Информация                        : Free Lossless Audio Codec
Размер файла                             : 141 Мбайт
Продолжительность                        : 3 м. 32 с.
Режим общего битрейта                    : Переменный
Общий поток                              : 5586 Кбит/сек
Альбом                                   : In Trance
Трек                                     : Dark Lady
Трек/Положение                           : 01
Трек/Всего                               : 10
Исполнитель                              : Scorpions
Жанр                                     : Hard Rock
Дата записи                              : 1975

Аудио
Формат                                   : FLAC
Формат/Информация                        : Free Lossless Audio Codec
Продолжительность                        : 3 м. 32 с.
Вид битрейта                             : Переменный
Битрейт                                  : 5586 Кбит/сек
Каналы                                   : 2 канала
Частота                                  : 192 КГц
Битовая глубина                          : 24 бит
Размер потока                            : 141 Мбайт (100%)
Библиотека кодирования                   : libFLAC 1.2.1 (UTC 2007-09-17)

Код:
Общее
Полное имя                               : D:\Scorpions-VinylRip. Fly To The Rainbow & In Trance_FLAC.Tracks.LosslesS[nnmclub.to]\1975 - In Trance\02. In Trance.flac
Формат                                   : FLAC
Формат/Информация                        : Free Lossless Audio Codec
Размер файла                             : 183 Мбайт
Продолжительность                        : 4 м. 48 с.
Режим общего битрейта                    : Переменный
Общий поток                              : 5305 Кбит/сек
Альбом                                   : In Trance
Трек                                     : In Trance
Трек/Положение                           : 02
Трек/Всего                               : 10
Исполнитель                              : Scorpions
Жанр                                     : Hard Rock
Дата записи                              : 1975

Аудио
Формат                                   : FLAC
Формат/Информация                        : Free Lossless Audio Codec
Продолжительность                        : 4 м. 48 с.
Вид битрейта                             : Переменный
Битрейт                                  : 5304 Кбит/сек
Каналы                                   : 2 канала
Частота                                  : 192 КГц
Битовая глубина                          : 24 бит
Размер потока                            : 183 Мбайт (100%)
Библиотека кодирования                   : libFLAC 1.2.1 (UTC 2007-09-17)

Код:
Общее
Полное имя                               : D:\Scorpions-VinylRip. Fly To The Rainbow & In Trance_FLAC.Tracks.LosslesS[nnmclub.to]\1975 - In Trance\03. Life's Like A River.flac
Формат                                   : FLAC
Формат/Информация                        : Free Lossless Audio Codec
Размер файла                             : 151 Мбайт
Продолжительность                        : 3 м. 54 с.
Режим общего битрейта                    : Переменный
Общий поток                              : 5422 Кбит/сек
Альбом                                   : In Trance
Трек                                     : Life's Like A River
Трек/Положение                           : 03
Трек/Всего                               : 10
Исполнитель                              : Scorpions
Жанр                                     : Hard Rock
Дата записи                              : 1975

Аудио
Формат                                   : FLAC
Формат/Информация                        : Free Lossless Audio Codec
Продолжительность                        : 3 м. 54 с.
Вид битрейта                             : Переменный
Битрейт                                  : 5422 Кбит/сек
Каналы                                   : 2 канала
Частота                                  : 192 КГц
Битовая глубина                          : 24 бит
Размер потока                            : 151 Мбайт (100%)
Библиотека кодирования                   : libFLAC 1.2.1 (UTC 2007-09-17)

Код:
Общее
Полное имя                               : D:\Scorpions-VinylRip. Fly To The Rainbow & In Trance_FLAC.Tracks.LosslesS[nnmclub.to]\1975 - In Trance\04. Top Of The Bill.flac
Формат                                   : FLAC
Формат/Информация                        : Free Lossless Audio Codec
Размер файла                             : 139 Мбайт
Продолжительность                        : 3 м. 27 с.
Режим общего битрейта                    : Переменный
Общий поток                              : 5613 Кбит/сек
Альбом                                   : In Trance
Трек                                     : Top Of The Bill
Трек/Положение                           : 04
Трек/Всего                               : 10
Исполнитель                              : Scorpions
Жанр                                     : Hard Rock
Дата записи                              : 1975

Аудио
Формат                                   : FLAC
Формат/Информация                        : Free Lossless Audio Codec
Продолжительность                        : 3 м. 27 с.
Вид битрейта                             : Переменный
Битрейт                                  : 5612 Кбит/сек
Каналы                                   : 2 канала
Частота                                  : 192 КГц
Битовая глубина                          : 24 бит
Размер потока                            : 139 Мбайт (100%)
Библиотека кодирования                   : libFLAC 1.2.1 (UTC 2007-09-17)

Код:
Общее
Полное имя                               : D:\Scorpions-VinylRip. Fly To The Rainbow & In Trance_FLAC.Tracks.LosslesS[nnmclub.to]\1975 - In Trance\05. Living And Dying.flac
Формат                                   : FLAC
Формат/Информация                        : Free Lossless Audio Codec
Размер файла                             : 131 Мбайт
Продолжительность                        : 3 м. 22 с.
Режим общего битрейта                    : Переменный
Общий поток                              : 5420 Кбит/сек
Альбом                                   : In Trance
Трек                                     : Living And Dying
Трек/Положение                           : 05
Трек/Всего                               : 10
Исполнитель                              : Scorpions
Жанр                                     : Hard Rock
Дата записи                              : 1975

Аудио
Формат                                   : FLAC
Формат/Информация                        : Free Lossless Audio Codec
Продолжительность                        : 3 м. 22 с.
Вид битрейта                             : Переменный
Битрейт                                  : 5420 Кбит/сек
Каналы                                   : 2 канала
Частота                                  : 192 КГц
Битовая глубина                          : 24 бит
Размер потока                            : 131 Мбайт (100%)
Библиотека кодирования                   : libFLAC 1.2.1 (UTC 2007-09-17)

Код:
Общее
Полное имя                               : D:\Scorpions-VinylRip. Fly To The Rainbow & In Trance_FLAC.Tracks.LosslesS[nnmclub.to]\1975 - In Trance\06. Robot Man.flac
Формат                                   : FLAC
Формат/Информация                        : Free Lossless Audio Codec
Размер файла                             : 114 Мбайт
Продолжительность                        : 2 м. 50 с.
Режим общего битрейта                    : Переменный
Общий поток                              : 5595 Кбит/сек
Альбом                                   : In Trance
Трек                                     : Robot Man
Трек/Положение                           : 06
Трек/Всего                               : 10
Исполнитель                              : Scorpions
Жанр                                     : Hard Rock
Дата записи                              : 1975

Аудио
Формат                                   : FLAC
Формат/Информация                        : Free Lossless Audio Codec
Продолжительность                        : 2 м. 50 с.
Вид битрейта                             : Переменный
Битрейт                                  : 5595 Кбит/сек
Каналы                                   : 2 канала
Частота                                  : 192 КГц
Битовая глубина                          : 24 бит
Размер потока                            : 113 Мбайт (100%)
Библиотека кодирования                   : libFLAC 1.2.1 (UTC 2007-09-17)

Код:
Общее
Полное имя                               : D:\Scorpions-VinylRip. Fly To The Rainbow & In Trance_FLAC.Tracks.LosslesS[nnmclub.to]\1975 - In Trance\07. Evening Wind.flac
Формат                                   : FLAC
Формат/Информация                        : Free Lossless Audio Codec
Размер файла                             : 198 Мбайт
Продолжительность                        : 5 м. 8 с.
Режим общего битрейта                    : Переменный
Общий поток                              : 5386 Кбит/сек
Альбом                                   : In Trance
Трек                                     : Evening Wind
Трек/Положение                           : 07
Трек/Всего                               : 10
Исполнитель                              : Scorpions
Жанр                                     : Hard Rock
Дата записи                              : 1975

Аудио
Формат                                   : FLAC
Формат/Информация                        : Free Lossless Audio Codec
Продолжительность                        : 5 м. 8 с.
Вид битрейта                             : Переменный
Битрейт                                  : 5386 Кбит/сек
Каналы                                   : 2 канала
Частота                                  : 192 КГц
Битовая глубина                          : 24 бит
Размер потока                            : 198 Мбайт (100%)
Библиотека кодирования                   : libFLAC 1.2.1 (UTC 2007-09-17)

Код:
Общее
Полное имя                               : D:\Scorpions-VinylRip. Fly To The Rainbow & In Trance_FLAC.Tracks.LosslesS[nnmclub.to]\1975 - In Trance\08. Sun In My Hand.flac
Формат                                   : FLAC
Формат/Информация                        : Free Lossless Audio Codec
Размер файла                             : 172 Мбайт
Продолжительность                        : 4 м. 26 с.
Режим общего битрейта                    : Переменный
Общий поток                              : 5428 Кбит/сек
Альбом                                   : In Trance
Трек                                     : Sun In My Hand
Трек/Положение                           : 08
Трек/Всего                               : 10
Исполнитель                              : Scorpions
Жанр                                     : Hard Rock
Дата записи                              : 1975

Аудио
Формат                                   : FLAC
Формат/Информация                        : Free Lossless Audio Codec
Продолжительность                        : 4 м. 26 с.
Вид битрейта                             : Переменный
Битрейт                                  : 5428 Кбит/сек
Каналы                                   : 2 канала
Частота                                  : 192 КГц
Битовая глубина                          : 24 бит
Размер потока                            : 172 Мбайт (100%)
Библиотека кодирования                   : libFLAC 1.2.1 (UTC 2007-09-17)

Код:
Общее
Полное имя                               : D:\Scorpions-VinylRip. Fly To The Rainbow & In Trance_FLAC.Tracks.LosslesS[nnmclub.to]\1975 - In Trance\09. Longing For Fire.flac
Формат                                   : FLAC
Формат/Информация                        : Free Lossless Audio Codec
Размер файла                             : 110 Мбайт
Продолжительность                        : 2 м. 45 с.
Режим общего битрейта                    : Переменный
Общий поток                              : 5577 Кбит/сек
Альбом                                   : In Trance
Трек                                     : Longing For Fire
Трек/Положение                           : 09
Трек/Всего                               : 10
Исполнитель                              : Scorpions
Жанр                                     : Hard Rock
Дата записи                              : 1975

Аудио
Формат                                   : FLAC
Формат/Информация                        : Free Lossless Audio Codec
Продолжительность                        : 2 м. 45 с.
Вид битрейта                             : Переменный
Битрейт                                  : 5577 Кбит/сек
Каналы                                   : 2 канала
Частота                                  : 192 КГц
Битовая глубина                          : 24 бит
Размер потока                            : 110 Мбайт (100%)
Библиотека кодирования                   : libFLAC 1.2.1 (UTC 2007-09-17)

Код:
Общее
Полное имя                               : D:\Scorpions-VinylRip. Fly To The Rainbow & In Trance_FLAC.Tracks.LosslesS[nnmclub.to]\1975 - In Trance\10. Night Lights.flac
Формат                                   : FLAC
Формат/Информация                        : Free Lossless Audio Codec
Размер файла                             : 116 Мбайт
Продолжительность                        : 3 м. 16 с.
Режим общего битрейта                    : Переменный
Общий поток                              : 4971 Кбит/сек
Альбом                                   : In Trance
Трек                                     : Night Lights
Трек/Положение                           : 10
Трек/Всего                               : 10
Исполнитель                              : Scorpions
Жанр                                     : Hard Rock
Дата записи                              : 1975

Аудио
Формат                                   : FLAC
Формат/Информация                        : Free Lossless Audio Codec
Продолжительность                        : 3 м. 16 с.
Вид битрейта                             : Переменный
Битрейт                                  : 4971 Кбит/сек
Каналы                                   : 2 канала
Частота                                  : 192 КГц
Битовая глубина                          : 24 бит
Размер потока                            : 116 Мбайт (100%)
Библиотека кодирования                   : libFLAC 1.2.1 (UTC 2007-09-17)


За материал спасибо: 43456, Titura, bazar, AlBeOne, Alex Blackseam

Время раздачи: Круглосуточно
Scorpions-VinylRip. Fly To The Rainbow & In Trance_FLAC.Tracks.LosslesS[nnm-club.ru].torrent
 Торрент: Платиновая раздача  Зарегистрирован
 
Скачать


Примагнититься
 Зарегистрирован:   09 Апр 2012 14:21:01
 Размер:   2.96 GB  (
 Рейтинг:   4.8 (Голосов: 31)
 Поблагодарили:   85
 Проверка:   Оформление проверено модератором 09 Апр 2012 18:56:35
Как cкачать  ·  Как раздать  ·  Правильно оформить  ·  Поднять ратио!  
andrwers
Стаж: 14 лет 4 мес.
Сообщений: 449
Ratio: 10.197
100%
Моя любимая группа

_________________
PhantomAVG ®
Стаж: 13 лет 2 мес.
Сообщений: 1487
Ratio: 6.898
Раздал: 2.746 TB
Поблагодарили: 13970
100%
Откуда: страна пиратия
pirates.png
andrwers
Взаимно :ангел:

_________________
roni_777
Стаж: 11 лет 4 мес.
Сообщений: 22
Ratio: 13.164
100%
Откуда: Золотое
ukraine.gif
станьте плиз на раздачу
roni_777
Стаж: 11 лет 4 мес.
Сообщений: 22
Ratio: 13.164
100%
Откуда: Золотое
ukraine.gif
спс огоромное :выпивают:
Показать сообщения:   
Начать новую тему   Ответить на тему    Торрент-трекер NNM-Club -> HD Audio и Многоканальная Музыка -> Vinyl-Rip и Hand-Made Часовой пояс: GMT + 3
Страница 1 из 1