Классический форум-трекер
canvas not supported
Нас вместе: 4 210 909

Тайны следствия - 11 (2012) SATRip [1-12 серии из 12]


 
 
RSS
Начать новую тему   Ответить на тему    Торрент-трекер NNM-Club -> Отечественные сериалы
Автор Сообщение
Sедой ®
Стаж: 12 лет 3 мес.
Сообщений: 3057
Ratio: 5117.534
Поблагодарили: 648109
100%
Откуда: Донецк
Тайны следствия - 11 (2012) SATRip [1-12 серии из 12]
Русское название: Тайны следствия-11
Выпущено: Россия
Год выпуска: 2012
Жанр: Детектив, Драма, Криминал
Перевод: Оригинал (Русский)Внимание!
В 7,8 серии Украинские субтитры, не отключаемые.

Режиссер: Михаил Вассербаум
Актеры: Анна Ковальчук, Сергей Барышев, Вячеслав Захаров, Александр Новиков(III), Мирослав Малич, Игорь Григорьев(IV), Александр Шпилько, Светлана Щедрина, Олег Алмазов, Юлия Яковлева, Андрей Шарков, Дмитрий Поднозов, Злата Ильченко, Сергей Куприянов, Нелли Попова, Марианна Лучинина, Ольга Павловец

Описание фильма:
И в этот раз следователь Швецова возьмётся за не менее сложные и запутанные дела. Тело генерального директора известной пивной компании Выготского будет найдено на пороге ресторана. Его жена и любовница станут бороться за освободившееся директорское кресло. Маше придётся выяснить, кто из них причастен к убийству. К счастью, Швецовой всегда готовы помочь коллеги - бывалые судмедэксперты и криминалисты Володя Винокуров и Фёдор Курочкин. Также специалистам питерского следственного комитета предстоит раскрыть странное преступление - убийство бывшего шкипера Глебова, отравленного неизвестным ноотропным препаратом.
В личной жизни у Маши есть несгибаемый тыл в лице любящего супруга Дмитрия Луганского и дочери Златы. Благодаря их поддержке, а также своим выдающимся способностям Маша никогда не пасует перед самыми трудными преступлениями. В раскрытии некоторых дел активное участие принимает новый работник комитета – следователь Людмила Колонкова. Она работает по протекции главы следственного комитета Филонова , с которым у Швецовой по-прежнему непростые отношения из-за разницы в профессиональных взглядах.

Продолжительность: 12 х ~ 00:43:29 серия
Качество видео: SATRip

Видеокодек: Xvid
Битрейт видео: ~1503 Kbit/s
Размер кадра: 704 x 368
Аудиокодек: MP3, 2.0
Битрейт аудио: 128 Kbit/s
Общее
Полное имя : D:\Торренты\ФИЛЬМЫ торента\Тайны следствия-11.2012. SATRip\Тайны следствия-11.10. 2012. SATRip.avi
Формат : AVI
Формат/Информация : Audio Video Interleave
Размер файла : 511 Мбайт
Продолжительность : 43 м.
Общий поток : 1641 Кбит/сек
Программа кодирования : VirtualDubMod 1.5.10.2 (build 2540/release)
Библиотека кодирования : VirtualDub build 32842/release

Видео
Идентификатор : 0
Формат : MPEG-4 Visual
Профиль формата : Advanced Simple@L5
Параметр BVOP формата : 2
Параметр QPel формата : Нет
Параметр GMC формата : Без точки перехода
Параметр матрицы формата : Default (MPEG)
Режим смешивания : Сжатый битовый поток
Идентификатор кодека : XVID
Идентификатор кодека/Подсказка : XviD
Продолжительность : 43 м.
Битрейт : 1503 Кбит/сек
Ширина : 704 пикс.
Высота : 368 пикс.
Соотношение сторон : 1,913
Частота кадров : 25,000 кадр/сек
Цветовое пространство : YUV
Подвыборка цветности : 4:2:0
Битовая глубина : 8 бит
Тип развёртки : Прогрессивная
Метод сжатия : С потерями
Бит/(Пиксели*Кадры) : 0.232
Размер потока : 468 Мбайт (92%)
Библиотека кодирования : XviD 64

Аудио
Идентификатор : 1
Формат : MPEG Audio
Версия формата : Version 1
Профиль формата : Layer 3
Режим : Joint stereo
Идентификатор кодека : 55
Идентификатор кодека/Подсказка : MP3
Продолжительность : 43 м.
Вид битрейта : Постоянный
Битрейт : 128 Кбит/сек
Каналы : 2 канала
Частота : 48,0 КГц
Метод сжатия : С потерями
Размер потока : 39,8 Мбайт (8%)
Выравнивание : Соединение по промежуткам
Продолжительность промежутка : 40 мс. (1,00 видеокадр)
Время предзагрузки промежутка : 504 ms

Тайны следствия
Скриншоты:

Время раздачи: 24/7 по возможности
 Торрент: Платиновая раздача  Зарегистрирован
 
Скачать


 Зарегистрирован:   04 Май 2012 16:22:07
 Размер:   5.94 GB  (
 Рейтинг:   4.7 (Голосов: 201)
 Поблагодарили:   954
 Проверка:   Оформление проверено модератором 04 Май 2012 22:19:10
Как cкачать  ·  Как раздать  ·  Правильно оформить  ·  Поднять ратио!  
alexiz28
Стаж: 12 лет 1 мес.
Сообщений: 6
Ratio: 5.487
100%
ukraine.gif
Спасибо))))
ZiiZ
Стаж: 13 лет 3 мес.
Сообщений: 3
Ratio: 25.623
100%
witch.png
Спасибо. :пока:
Хороший сериал. Но судя по предыдущему сезону сдаёт здорово :(
sathos
Стаж: 12 лет 1 мес.
Сообщений: 16
Ratio: 77.303
100%
Откуда: Екатеринбург
russia.gif
:пока: СПАСИБО!!!
Руслан35
Стаж: 9 лет 2 мес.
Сообщений: 2
Ratio: 126.013
100%
спасибо
kindergod
Стаж: 12 лет 1 мес.
Сообщений: 41
Ratio: 9.728
Поблагодарили: 740
100%
Откуда: Кировск Мурманской обл.
russia.gif
(73) 1 «Переходящее пиво»
(74) 2 «Последние часы»
(75) 3 «Сила звука»
(76) 4 «Маэстро»
(77) 5 «Треугольная история»
(78) 6 «Велосипедист на том свете»
jromanr
Стаж: 11 лет 10 мес.
Сообщений: 21
Ratio: 1.928
100%
Отличный сериал. Спасибо!
Показать сообщения:   
Начать новую тему   Ответить на тему    Торрент-трекер NNM-Club -> Отечественные сериалы Часовой пояс: GMT + 3
Страница 1 из 1