Классический форум-трекер
canvas not supported
Нас вместе: 4 231 861

Крематорий - Двойной альбом (1993) [APE 2.0 24/96 | tracks (VinylRip)]<Рок-н-ролл, Хард-рок>


 
 
RSS
Начать новую тему   Ответить на тему    Торрент-трекер NNM-Club -> HD Audio и Многоканальная Музыка -> Vinyl-Rip и Hand-Made
Автор Сообщение
PhantomAVG ®
Стаж: 13 лет 2 мес.
Сообщений: 1487
Ratio: 6.898
Раздал: 2.746 TB
Поблагодарили: 13970
100%
Откуда: страна пиратия
pirates.png
Крематорий - Двойной альбом (1993)
Год: 1993
Жанр: Хард-рок, Рок-н-Ролл
Страна-производитель: Россия

Автор оцифровки: NoOneIsThere
Продолжительность: 01:09:20
Кодек: APE
Битрейт: Lossless
Аудио: 24 бит / 96 кГц
Жанр: Rock
Год выпуска: 1993
Лейбл: СП "Апрелевка - Саунд Инк"
Аудио кодек: APE
Тип рипа: image+.cue

Трек лист:
01. Проходящие Мимо
02. Реанимационная Машина
03. Клаустрофобия
04. Адольф
05. Таня
06. Кондратий
07. Крематорий
08. Лепрозорий
09. Маленькая Девочка
10. Посвящение Бывшей Подруге
11. Наше Время
12. Vinus Memoirs (Винные Мемуары)
13. Sky
14. Гончие Псы
15. Последний Шанс (Собачка)
16. Клубника Со Льдом
17. Дрянь
18. Hare Rama
19. Космос (Архип Архипыч)
20. Америка
21. Безобразная Эльза
22. Сексуальная Кошка
23. Аутсайдер
24. Мусорный Ветер
Код класса состояния винила: NM
Устройство воспроизведения: Technics SL-1500 + Shure M24H + Type IV
Фонокорректор: 2-x блочный, гибридный (Mullard ECC83 + E88CC)
АЦП: SB E-MU 0404 USB
Программа-оцифровщик: MAGIX Samplitude 10
Обработка: Убрано пара щелчков в Аудишине
Код:
Общее
Полное имя                               : D:\Крематорий - Двойной альбом - 1993 - 2LP\Крематорий - Двойной альбом - 1993 - LP1.ape
Формат                                   : Monkey's Audio
Размер файла                             : 756 Мбайт
Продолжительность                        : 35 м.
Общий поток                              : 2962 Кбит/сек

Аудио
Формат                                   : Monkey's Audio
Продолжительность                        : 35 м.
Битрейт                                  : 2962 Кбит/сек
Каналы                                   : 2 канала
Частота                                  : 96,0 КГц
Битовая глубина                          : 24 бит
Метод сжатия                             : Без потерь
Степень сжатия                           : 1.556
Размер потока                            : 756 Мбайт (100%)
Настройки программы                      : Normal
Код:
Общее
Полное имя                               : D:\Крематорий - Двойной альбом - 1993 - 2LP\Крематорий - Двойной альбом - 1993 - LP2.ape
Формат                                   : Monkey's Audio
Размер файла                             : 710 Мбайт
Продолжительность                        : 33 м.
Общий поток                              : 2947 Кбит/сек

Аудио
Формат                                   : Monkey's Audio
Продолжительность                        : 33 м.
Битрейт                                  : 2947 Кбит/сек
Каналы                                   : 2 канала
Частота                                  : 96,0 КГц
Битовая глубина                          : 24 бит
Метод сжатия                             : Без потерь
Степень сжатия                           : 1.564
Размер потока                            : 710 Мбайт (100%)
Настройки программы                      : Normal
Код:
REM GENRE Rock
REM DATE 1993
PERFORMER "Крематорий"
TITLE "Двойной альбом"
FILE "Крематорий - Двойной альбом - 1993 - LP1.ape" WAVE
TRACK 01 AUDIO
TITLE "Проходящие Мимо"
PERFORMER "Крематорий"
INDEX 01 00:00:00
TRACK 02 AUDIO
TITLE "Реанимационная Машина"
PERFORMER "Крематорий"
INDEX 01 01:10:60
TRACK 03 AUDIO
TITLE "Клаустрофобия"
PERFORMER "Крематорий"
INDEX 01 05:04:50
TRACK 04 AUDIO
TITLE "Адольф"
PERFORMER "Крематорий"
INDEX 01 10:02:50
TRACK 05 AUDIO
TITLE "Таня"
PERFORMER "Крематорий"
INDEX 01 12:55:50
TRACK 06 AUDIO
TITLE "Кондратий"
PERFORMER "Крематорий"
INDEX 01 17:00:00
TRACK 07 AUDIO
TITLE "Крематорий"
PERFORMER "Крематорий"
INDEX 01 18:35:00
TRACK 08 AUDIO
TITLE "Лепрозорий"
PERFORMER "Крематорий"
INDEX 01 20:04:00
TRACK 09 AUDIO
TITLE "Маленькая Девочка"
PERFORMER "Крематорий"
INDEX 01 23:48:50
TRACK 10 AUDIO
TITLE "Посвящение Бывшей Подруге"
PERFORMER "Крематорий"
INDEX 01 26:01:00
TRACK 11 AUDIO
TITLE "Наше Время"
PERFORMER "Крематорий"
INDEX 01 28:40:50
TRACK 12 AUDIO
TITLE "Vinus Memoirs (Винные Мемуары)"
PERFORMER "Крематорий"
INDEX 01 32:34:00
FILE "Крематорий - Двойной альбом - 1993 - LP2.ape" WAVE
TRACK 13 AUDIO
TITLE "Sky"
PERFORMER "Крематорий"
INDEX 01 00:00:00
TRACK 14 AUDIO
TITLE "Гончие Псы"
PERFORMER "Крематорий"
INDEX 01 00:51:00
TRACK 15 AUDIO
TITLE "Последний Шанс (Собачка)"
PERFORMER "Крематорий"
INDEX 01 03:34:50
TRACK 16 AUDIO
TITLE "Клубника Со Льдом"
PERFORMER "Крематорий"
INDEX 01 07:10:92
TRACK 17 AUDIO
TITLE "Дрянь"
PERFORMER "Крематорий"
INDEX 01 09:27:00
TRACK 18 AUDIO
TITLE "Hare Rama"
PERFORMER "Крематорий"
INDEX 01 13:44:00
TRACK 19 AUDIO
TITLE "Космос (Архип Архипыч)"
PERFORMER "Крематорий"
INDEX 01 17:08:00
TRACK 20 AUDIO
TITLE "Америка"
PERFORMER "Крематорий"
INDEX 01 19:23:00
TRACK 21 AUDIO
TITLE "Безобразная Эльза"
PERFORMER "Крематорий"
INDEX 01 22:19:50
TRACK 22 AUDIO
TITLE "Сексуальная Кошка"
PERFORMER "Крематорий"
INDEX 01 25:04:00
TRACK 23 AUDIO
TITLE "Аутсайдер"
PERFORMER "Крематорий"
INDEX 01 27:24:50
TRACK 24 AUDIO
TITLE "Мусорный Ветер"
PERFORMER "Крематорий"
INDEX 01 30:40:00


Время раздачи: Круглосуточно
Krematoriy - Dvoynoy al'bom - 1993 - 2LP[nnm-club.ru].torrent
 Торрент: Платиновая раздача  Зарегистрирован
 
Скачать


Примагнититься
 Зарегистрирован:   13 Апр 2012 19:53:34
 Размер:   1.44 GB  (
 Рейтинг:   5 (Голосов: 21)
 Поблагодарили:   74
 Проверка:   Оформление проверено модератором 14 Апр 2012 22:38:24
Как cкачать  ·  Как раздать  ·  Правильно оформить  ·  Поднять ратио!  
julia_breil
Стаж: 11 лет 6 мес.
Сообщений: 10
Ratio: 50.442
100%
Доброе время суток!
Кто скачал, встаньте на раздачу пожалуйста!
Алексей240м
Стаж: 8 лет 10 мес.
Сообщений: 3
Ratio: 0.029
5.88%
встанте пожалуйта на раздачу
hangman57rus
Стаж: 14 лет 9 мес.
Сообщений: 53
Ratio: 0.838
27.4%
russia.gif
в EZCDAudioConverter и Medieval CUE Splitter куе файл не читается
TyMaVi
Стаж: 12 лет 11 мес.
Сообщений: 4
Ratio: 41.352
100%
russia.gif
Встаньте пожалуйста на раздачу.
Показать сообщения:   
Начать новую тему   Ответить на тему    Торрент-трекер NNM-Club -> HD Audio и Многоканальная Музыка -> Vinyl-Rip и Hand-Made Часовой пояс: GMT + 3
Страница 1 из 1