Классический форум-трекер
canvas not supported
Нас вместе: 4 233 597

Кобра / Cobra (1986) [H.264] BDRip


 
 
RSS
Начать новую тему   Ответить на тему    Торрент-трекер NNM-Club -> Классика кино и Старые фильмы до 90-х -> Зарубежная Классика (SD)
Автор Сообщение
Zov72 ®
Стаж: 14 лет 4 мес.
Сообщений: 4743
Ratio: 110.504
Поблагодарили: 611310
100%
Откуда: Вольный кабан
wild_hogs.gif
Кобра / Cobra (1986) BDRip
«The strong arm of the law.»
Русское название: Кобра
Оригинальное название: Cobra
Год выпуска: 1986
Выпущено: США
Жанр: Боевик, Триллер, Криминал

Описание фильма:
Он — «Кобра» — штурмовой отряд полиции из одного человека, ему достаётся кровавая работёнка, за которую никто не хочет (или не осмеливается) взяться. Он выходит на след убийцы, за которым целая армия преступников-маньяков, стремящихся уничтожить свидетельницу их кровавой вакханалии. Но, к счастью, она попадает под защиту «Кобры».

Режиссер: Джордж Пан Косматос
Актеры: Сильвестр Сталлоне, Бриджитт Нильсен, Рени Сантони, Эндрю Робинсон, Брайан Томпсон, Джон Херцфелд, Ли Гарлингтон, Арт ЛаФлёр, Марко Родригес, Росс Ст. Филлип

Продолжительность: 01:27:00
Перевод: Дублированный
Субтитры: Отсутствуют

Дата мировой премьеры: 23 мая 1986
Дата релиза на DVD:16 сентября 2008, «Юниверсал Пикчерс Рус»
Дата релиза на Blu-Ray: 17 марта 2011, «CP-Digital»

Видеокодек: MPEG-4 AVC/H.264
Битрейт видео: 3001 Кбит/сек
Размер кадра: 1024x576 (16:9)
Качество видео: BDRip
Аудиокодек: AC3 5.1
Битрейт аудио: 448 Кбит/сек

Сэмпл: Скачать
Код:
General
Unique ID                                : 242583674078843450451819398332261253902 (0xB67FEA8B9C5DBF308BF56374B166C30E)
Complete name                            : C:\Users\Сергей\Downloads\Cobra.BDRipAVC.mkv
Format                                   : Matroska
Format version                           : Version 2
File size                                : 2.10 GiB
Duration                                 : 1h 27mn
Overall bit rate                         : 3 449 Kbps
Encoded date                             : UTC 2012-03-29 06:51:30
Writing application                      : mkvmerge v3.3.0 ('Language') gebaut am Mar 24 2010 14:59:24
Writing library                          : libebml v0.8.0 + libmatroska v0.9.0

Video
ID                                       : 1
Format                                   : AVC
Format/Info                              : Advanced Video Codec
Format profile                           : High@L4.1
Format settings, CABAC                   : Yes
Format settings, ReFrames                : 4 frames
Codec ID                                 : V_MPEG4/ISO/AVC
Duration                                 : 1h 27mn
Bit rate                                 : 3 001 Kbps
Width                                    : 1 024 pixels
Height                                   : 576 pixels
Display aspect ratio                     : 16:9
Frame rate                               : 23.976 fps
Color space                              : YUV
Chroma subsampling                       : 4:2:0
Bit depth                                : 8 bits
Scan type                                : Progressive
Bits/(Pixel*Frame)                       : 0.212
Stream size                              : 1.78 GiB (85%)
Title                                    : Cobra
Writing library                          : x264 core 122 r2184 5c85e0a
Encoding settings                        : cabac=1 / ref=4 / deblock=1:-3:-3 / analyse=0x3:0x113 / me=umh / subme=10 / psy=1 / psy_rd=1.00:0.15 / mixed_ref=1 / me_range=24 / chroma_me=1 / trellis=2 / 8x8dct=1 / cqm=0 / deadzone=21,11 / fast_pskip=1 / chroma_qp_offset=-3 / threads=12 / sliced_threads=0 / nr=0 / decimate=1 / interlaced=0 / bluray_compat=0 / constrained_intra=0 / bframes=5 / b_pyramid=2 / b_adapt=1 / b_bias=0 / direct=2 / weightb=1 / open_gop=0 / weightp=2 / keyint=230 / keyint_min=23 / scenecut=40 / intra_refresh=0 / rc_lookahead=54 / rc=2pass / mbtree=1 / bitrate=3001 / ratetol=1.0 / qcomp=0.60 / qpmin=10 / qpmax=58 / qpstep=4 / cplxblur=20.0 / qblur=0.5 / ip_ratio=1.40 / aq=1:1.00 / zones=120510,125246,b=0.27
Language                                 : English
Default                                  : No
Forced                                   : No
Color primaries                          : BT.709-5, BT.1361, IEC 61966-2-4, SMPTE RP177
Transfer characteristics                 : BT.709-5, BT.1361
Matrix coefficients                      : BT.709-5, BT.1361, IEC 61966-2-4 709, SMPTE RP177

Audio
ID                                       : 2
Format                                   : AC-3
Format/Info                              : Audio Coding 3
Mode extension                           : CM (complete main)
Codec ID                                 : A_AC3
Duration                                 : 1h 27mn
Bit rate mode                            : Constant
Bit rate                                 : 448 Kbps
Channel(s)                               : 6 channels
Channel positions                        : Front: L C R, Side: L R, LFE
Sampling rate                            : 48.0 KHz
Bit depth                                : 16 bits
Compression mode                         : Lossy
Stream size                              : 279 MiB (13%)
Title                                    : Дубляж
Default                                  : Yes
Forced                                   : No

Menu
00:00:00.000                             : en:Chapter 01
00:02:51.045                             : en:Chapter 02
00:07:11.889                             : en:Chapter 03
00:09:59.432                             : en:Chapter 04
00:13:11.624                             : en:Chapter 05
00:16:44.545                             : en:Chapter 06
00:21:39.923                             : en:Chapter 07
00:22:59.002                             : en:Chapter 08
00:25:50.674                             : en:Chapter 09
00:29:10.915                             : en:Chapter 10
00:33:24.752                             : en:Chapter 11
00:37:48.182                             : en:Chapter 12
00:42:39.723                             : en:Chapter 13
00:43:51.086                             : en:Chapter 14
00:50:53.675                             : en:Chapter 15
00:52:36.528                             : en:Chapter 16
00:54:33.270                             : en:Chapter 17
00:57:04.003                             : en:Chapter 18
00:59:41.995                             : en:Chapter 19
01:04:14.684                             : en:Chapter 20
01:08:27.186                             : en:Chapter 21
01:10:39.026                             : en:Chapter 22
01:12:37.853                             : en:Chapter 23
01:14:44.897                             : en:Chapter 24
01:17:32.689                             : en:Chapter 25
01:20:08.470                             : en:Chapter 26
01:22:39.621                             : en:Chapter 27
01:27:03.635                             : en:Chapter 28


Cкриншоты из фильма:



Приятного просмотра
и не забываем говорить СПАСИБО...

Время раздачи: 24/7
до 15 скачавших..
[NNM-Club.ru]_Cobra.BDRipAVC.mkv.torrent
 Торрент: Платиновая раздача  Зарегистрирован
 
Скачать


Примагнититься
 Зарегистрирован:   14 Апр 2012 20:24:48
 Размер:   2.1 GB  (
 Рейтинг:   4.6 (Голосов: 56)
 Поблагодарили:   129
 Проверка:   Оформление проверено модератором 14 Апр 2012 21:18:55
Как cкачать  ·  Как раздать  ·  Правильно оформить  ·  Поднять ратио!  
ZEnOID
Стаж: 13 лет 1 мес.
Сообщений: 457
Ratio: 18.498
Раздал: 22.76 TB
Поблагодарили: 2079
100%
Откуда: Екатеринбург
russia.gif
От души тебе за отличный фильм!!
DoRaNanTeG
Стаж: 13 лет 10 мес.
Сообщений: 152
Ratio: 9.348
Поблагодарили: 60
100%
ethiopia.gif
СПАСИБО!!!
Romeo5036
Стаж: 13 лет 4 мес.
Сообщений: 325
Ratio: 3.496
100%
Откуда: СССР
ussr.gif
Автору спс за отличный фильм!!
оки
 
Стаж: 13 лет 10 мес.
Сообщений: 561
Ratio: 95.309
100%
спасибо конечно за раздачу.
но (Кобра Cobra (1986) BDRip 1080p от NOLIMITS-TEAM)-и качество картинки получше и перевод ближе
к теме. :смущение:
Астрожитель
Стаж: 12 лет 1 мес.
Сообщений: 1
3.33%
спасибо
kristadze
Стаж: 12 лет 4 мес.
Сообщений: 384
Ratio: 5.687
100%
а мы смотрели в плохом качестве (что естественно) ок. 1990 года, очень впечатлил (тогда)
Mi-hey
Стаж: 13 лет 5 мес.
Сообщений: 6
Ratio: 8.217
39.76%
у меня в детстве даже такой постер был :)
Показать сообщения:   
Начать новую тему   Ответить на тему    Торрент-трекер NNM-Club -> Классика кино и Старые фильмы до 90-х -> Зарубежная Классика (SD) Часовой пояс: GMT + 3
Страница 1 из 1