Классический форум-трекер
canvas not supported
Нас вместе: 4 235 091

Hugh Laurie: Let Them Talk. A Celebration of New Orleans Blues (2011) TVRip


 
 
RSS
Начать новую тему   Ответить на тему    Торрент-трекер NNM-Club -> Театр и Музыкальное видео -> Концерты (SD)
Автор Сообщение
N2005 ®
Стаж: 16 лет 1 мес.
Сообщений: 283
Ratio: 2.483
Поблагодарили: 882
100%
Откуда: Киев
ukraine.gif
Hugh Laurie: Let Them Talk. A Celebration of New Orleans Blues (2011) TVRip
Год выпуска: 2011
Жанр: Концерт

Описание:
Концертная презентация альбома Хью Лори "Let Them Talk" в Новом Орлеане. Запись с телеканала PBS, США, 30 сентября 2011 года.

Продолжительность: 00:56:07
Пeревод: Отсутствует
Язык: Английский
Язык субтитрoв: Английские, отдельным файлом

Треклист:
01."Swanee River" (Foster/Charles) Hugh Laurie
02."Baby What Do You Want Me to Do" / "You Got Me Running" (Jimmy Read) Miss Lovell White & The Austin Blues Society Band
03."You Don't Know My Mind" (Williams/Gray/Liston) Hugh Laurie
04."You Don't Know Me" (Walker/Arnold) Lady on Guitar
05."Copperhead Road" (Steve Earle) Group Singing and Playing Guitars
06."Luckenbach Texas (Back to the Basics of Love)" (Moman/Emmons) Group Singing and Playing Banjos/Guitars
07."John Henry" (Traditional Arrangement – Chatman) Hugh Laurie/Irma Thomas
08."St. James Infirmary" (Traditional Arrangement – Primrose) Hugh Laurie
09."Buddy Bolden's Blues" (Traditional Arrangement – Morton) Hugh Laurie
10."Baby Please Make A Change" (Mississippi Sheiks) Hugh Laurie/Tom Jones/Irma Thomas
11."Let Them Talk" Hugh Laurie
12."Tipitina" (Professor Longhair) Hugh Laurie
Видеокодек: MPEG-2
Битрейт видео: ~2507 kbps
Размер кадра: 853 х 480
Качество видео: TVRip
Аудиокодек: AC3 2.0
Битрейт аудио: 192 kbps
Код:

Полное имя                               : Z:\Концерты\Let_Them_talk[nnm-club.ru]\ltt.mpg
Формат                                   : MPEG-PS
Размер файла                             : 1,09 Гбайт
Продолжительность                        : 56 м.
Режим общего битрейта                    : Переменный
Общий поток                              : 2783 Кбит/сек

Видео
Идентификатор                            : 224 (0xE0)
Формат                                   : MPEG Video
Версия формата                           : Version 2
Профиль формата                          : Main@Main
Параметр BVOP формата                    : Да
Параметр матрицы формата                 : Выборочная
Параметр GOP формата                     : M=3, N=15
Продолжительность                        : 56 м.
Вид битрейта                             : Переменный
Битрейт                                  : 2535 Кбит/сек
Максимальный битрейт                     : 10000 Кбит/сек
Ширина                                   : 704 пикселя
Высота                                   : 480 пикселей
Соотношение сторон                       : 16:9
Частота кадров                           : 29,970 кадров/сек
Стандарт вещания                         : Component
Цветовое пространство                    : YUV
Субдискретизация насыщенности            : 4:2:0
Битовая глубина                          : 8 бит
Тип развёртки                            : Чересстрочная
Порядок развёртки                        : Верхнее поле первое
Метод сжатия                             : С потерями
Бит/(Пиксели*Кадры)                      : 0.250
Размер потока                            : 1018 Мбайт (91%)

Аудио
Идентификатор                            : 189 (0xBD)-128 (0x80)
Формат                                   : AC-3
Формат/Информация                        : Audio Coding 3
Расширение режима                        : CM (complete main)
Параметр Endianness формата              : Big
Режим смешивания                         : DVD-Video
Продолжительность                        : 56 м.
Вид битрейта                             : Постоянный
Битрейт                                  : 192 Кбит/сек
Каналы                                   : 2 канала
Расположение каналов                     : Front: L R
Частота                                  : 48,0 КГц
Битовая глубина                          : 16 бит
Метод сжатия                             : С потерями
Задержка видео                           : 33 мс.
Размер потока                            : 77,1 Мбайт (7%)

Текст #1
Идентификатор                            : 224 (0xE0)-CC1
Формат                                   : EIA-608
Режим смешивания                         : A/53 / DTVCC Transport
Режим смешивания, доп. информация        : Muxed in Video #1
Вид битрейта                             : Постоянный
Размер потока                            : 0,00 байт (0%)

Текст #2
Идентификатор                            : 224 (0xE0)-1
Формат                                   : EIA-708
Режим смешивания                         : A/53 / DTVCC Transport
Режим смешивания, доп. информация        : Muxed in Video #1
Вид битрейта                             : Постоянный
Размер потока                            : 0,00 байт (0%)
     
Скриншоты:


Реставрация sklad600
Let_Them_talk[nnm-club.ru].torrent
 Торрент: Платиновая раздача  Зарегистрирован
 
Скачать


Примагнититься
 Зарегистрирован:   08 Май 2012 19:49:35
 Размер:   1.09 GB  (
 Рейтинг:   4.7 (Голосов: 20)
 Поблагодарили:   98
 Проверка:   Оформление проверено модератором 09 Май 2012 07:10:13
Как cкачать  ·  Как раздать  ·  Правильно оформить  ·  Поднять ратио!  
Ivan Marchishin
Стаж: 13 лет
Сообщений: 10
Ratio: 21.934
100%
Откуда: Russia
russia.gif
Спасибо огромное!!!
N2005 ®
Стаж: 16 лет 1 мес.
Сообщений: 283
Ratio: 2.483
Поблагодарили: 882
100%
Откуда: Киев
ukraine.gif
на здоровье ))... концерт отличный )).
nikkyperm
Стаж: 15 лет 11 мес.
Сообщений: 10
Ratio: 29.401
100%
ussr.gif
Огромное спасибо!! )
lembergman
Стаж: 15 лет 2 мес.
Сообщений: 41
Ratio: 2.662
100%
Откуда: Львов
ukraine.gif
Если кому будет не лень, закинте в ави, плиз
N2005 ®
Стаж: 16 лет 1 мес.
Сообщений: 283
Ratio: 2.483
Поблагодарили: 882
100%
Откуда: Киев
ukraine.gif
lembergman писал(а): Перейти к сообщению
Если кому будет не лень, закинте в ави, плиз


а чем этот формат не устраивает?
Показать сообщения:   
Начать новую тему   Ответить на тему    Торрент-трекер NNM-Club -> Театр и Музыкальное видео -> Концерты (SD) Часовой пояс: GMT + 3
Страница 1 из 1