Классический форум-трекер
canvas not supported
Нас вместе: 4 231 711

Операция «Арго» / Argo (2012) [1080p] HDTV [Трейлер] [EN]


 
 
RSS
Начать новую тему   Ответить на тему    Торрент-трекер NNM-Club -> Архив торрентов -> Архив Видео. Кино, Театра
Автор Сообщение
PSR E413 ®
Стаж: 11 лет 9 мес.
Сообщений: 355
Ratio: 8.456
Раздал: 1.282 TB
Поблагодарили: 16499
100%
albania.gif
Операция «Арго» / Argo (2012) [1080p] HDTV
[Трейлер]

Русское название: Операция «Арго»
Оригинальное название: Argo
Год выпуска: 2012
Производство: США
Компания: GK Films, Smoke House, Warner Bros. Pictures
Жанр: Драма, Триллер
Перевод: Отсутствует
Язык: Английский
Дата мировой премьеры: 12 октября 2012
Дата выхода DVD релиза: 11 октября 2012, «Каро-Премьер»
Режиссер: Бен Аффлек
Актеры: Бен Аффлек, Брайан Крэнстон, Джон Гудман, Клеа ДюВалл, Алан Аркин, Тэйлор Шиллинг, Майкл Кэссиди, Скут МакНейри, Майкл Паркс, Крис Мессина, Ричард Кинд, Желько Иванек, Кристофер Денэм, Мэтт Нолан, Кайл Чендлер, Тейт Донован, Рори Кокрэйн, Титус Уэлливер, Эдриэнн Барбо
Описание фильма:
Рассказ о том, как в 1979 году ЦРУ инсценировала съемки фильма, чтобы спасти заложников, захваченных в столице Ирана.
- фильм основан на реальной рассекреченной истории -

Продолжительность: 00:02:26
Качество видео: HDTV [1080p]

Видеокодек: MPEG-4 AVC/H.264
Битрейт видео: 11.4 Mb/s
Размер кадра: 1920x800 (2.40:1)
Аудиокодек: AAC 2.0
Битрейт аудио: 320 Kbps
Код: выделить все
General
Complete name                            : E:\Argo_2012_trailer_1080p.mov
Format                                   : MPEG-4
Format profile                           : QuickTime
Format settings                          : Compressed header
Codec ID                                 : qt
File size                                : 204 MiB
Duration                                 : 2mn 26s
Overall bit rate                         : 11.7 Mbps
Encoded date                             : UTC 2012-05-05 16:26:55
Tagged date                              : UTC 2012-05-05 16:27:01
Writing library                          : Apple QuickTime

Video
ID                                       : 2
Format                                   : AVC
Format/Info                              : Advanced Video Codec
Format profile                           : Main@L4.0
Format settings, CABAC                   : No
Format settings, ReFrames                : 2 frames
Codec ID                                 : avc1
Codec ID/Info                            : Advanced Video Coding
Duration                                 : 2mn 26s
Bit rate                                 : 11.4 Mbps
Width                                    : 1 920 pixels
Height                                   : 800 pixels
Display aspect ratio                     : 2.40:1
Frame rate mode                          : Constant
Frame rate                               : 23.976 fps
Color space                              : YUV
Chroma subsampling                       : 4:2:0
Bit depth                                : 8 bits
Scan type                                : Progressive
Bits/(Pixel*Frame)                       : 0.310
Stream size                              : 199 MiB (97%)
Language                                 : English
Encoded date                             : UTC 2012-05-05 16:26:44
Tagged date                              : UTC 2012-05-05 16:27:01
Color primaries                          : BT.709-5, BT.1361, IEC 61966-2-4, SMPTE RP177
Transfer characteristics                 : BT.709-5, BT.1361
Matrix coefficients                      : BT.709-5, BT.1361, IEC 61966-2-4 709, SMPTE RP177

Audio
ID                                       : 1
Format                                   : AAC
Format/Info                              : Advanced Audio Codec
Format profile                           : LC
Codec ID                                 : 40
Duration                                 : 2mn 26s
Source duration                          : 2mn 26s
Bit rate mode                            : Constant
Bit rate                                 : 320 Kbps
Channel(s)                               : 2 channels
Channel positions                        : Front: L R
Sampling rate                            : 48.0 KHz
Compression mode                         : Lossy
Stream size                              : 5.58 MiB (3%)
Source stream size                       : 5.58 MiB (3%)
Language                                 : English
Encoded date                             : UTC 2012-05-05 16:26:44
Tagged date                              : UTC 2012-05-05 16:27:01

Скриншоты:

Время раздачи: 24/7
до 5 скачавших..
[NNM-Club.ru]_Argo_2012_trailer_1080p.mov.torrent
 Торрент: Платиновая раздача  Зарегистрирован
 
Скачать


Примагнититься
 Зарегистрирован:   08 Май 2012 20:26:12
 Размер:   204 MB  (
 Рейтинг:   3.3 (Голосов: 24)
 Поблагодарили:   19
 Проверка:   Оформление проверено модератором 09 Май 2012 08:57:59
Как cкачать  ·  Как раздать  ·  Правильно оформить  ·  Поднять ратио!  
Топик был перенесен из форума Трейлеры в форум Архив Видео

Причина переноса: В архив переносятся темы, в которых месяц не было раздающего.
Rusik1000
Показать сообщения:   
Начать новую тему   Ответить на тему    Торрент-трекер NNM-Club -> Архив торрентов -> Архив Видео. Кино, Театра Часовой пояс: GMT + 3
Страница 1 из 1