Классический форум-трекер
canvas not supported
Нас вместе: 4 211 005

Менталист / The Mentalist (4 сезон,серия 24 из 24) (2011-2012) WEB-DLRip


 
 
RSS
Начать новую тему   Ответить на тему    Торрент-трекер NNM-Club -> Архив торрентов -> Архив Сериалов и Архив Старого многосерийного кино до 90-х
Автор Сообщение
Redisko111 ®
Покровитель талантов
Стаж: 12 лет 1 мес.
Сообщений: 6495
Ratio: 91.58
Раздал: 6.837 TB
Поблагодарили: 30647
100%
Откуда: Н.Н.
panama.gif

Менталист / The Mentalist (4 сезон,серия 24 из 24) (2011-2012) WEB-DLRip
Русское название: Менталист
Оригинальное название: The Mentalist
Год выпуска: 2011-2012
Жанр: Драма, комедия, детектив

Перевод: Любительский одноголосый (napaBo3uk)
Субтитры: Отсутствуют
Режиссер: Дэвид Барретт, Дэвид Наттер, Крис Лонг
Актеры: Саймон Бэйкер, Робин Танни, Тим Кенг, Овайн Йомэн, Аманда Риджетти, Грегори Итцин, Бодхи Элфмэн, Винн Эверетт, Аластер Маккензи, Крис Таллман

Описание фильма:
Патрик Джейн — детектив и независимый консультант из Калифорнийского Бюро Расследований (КБР), он использует свои отточенные, как лезвие, навыки наблюдения для раскрытия тяжких преступлений. В самом Бюро Джейн известен за частые нарушения протокола, а также за его звездное прошлое: он работал медиумом, однако теперь сам признает, что симулировал паранормальные способности. Роль Джейна в раскрытии целой серии загадочных преступлений высоко ценится коллегами. Но суровый старший агент Тереза Лисбон против того, чтоб Джейн работал с ее отрядом, и то вынужденно признает его успехи, то критикует его за театральность, нарциссизм и отсутствие границ.


Премьера (мир): 23 сентября 2008
Премьера (РФ): 12 апреля 2010
Продолжительность: 00:41:40
Качество видео: WEB-DLRip
Контейнер: AVI

Видеокодек: XviD
Битрейт видео: 1250 kbps
Размер кадра: 704x400
Аудио 1: [Русский] MP3, 2 ch, 160 kbps
Аудио 2: [Английский] MP3, 2 ch, 160 kbps
Код:
Общее
Полное имя                               : E:\Денис\Mentalist.(4.sezon.01-24.seriy.iz.24).2011-2012.XviD.WEB-DLRip.napaBo3uk\Mentalist.(4.sezon.03.seriya.iz.24).2011.XviD.WEB-DLRip.napaBo3uk.avi
Формат                                   : AVI
Формат/Информация                        : Audio Video Interleave
Размер файла                             : 477 Мбайт
Продолжительность                        : 42 м.
Общий поток                              : 1584 Кбит/сек
Программа кодирования                    : VirtualDubMod 1.5.10.2 (build 2540/release)
Библиотека кодирования                   : VirtualDubMod build 2540/release

Видео
Идентификатор                            : 0
Формат                                   : MPEG-4 Visual
Профиль формата                          : Advanced Simple@L5
Параметр BVOP формата                    : 2
Параметр QPel формата                    : Нет
Параметр GMC формата                     : Без точки перехода
Параметр матрицы формата                 : Default (H.263)
Режим смешивания                         : Сжатый битовый поток
Идентификатор кодека                     : XVID
Идентификатор кодека/Подсказка           : XviD
Продолжительность                        : 42 м.
Битрейт                                  : 1250 Кбит/сек
Ширина                                   : 704 пикселя
Высота                                   : 400 пикселей
Соотношение сторон                       : 16:9
Частота кадров                           : 23,976 кадра/сек
Цветовое пространство                    : YUV
Субдискретизация насыщенности            : 4:2:0
Битовая глубина                          : 8 бит
Тип развёртки                            : Прогрессивная
Метод сжатия                             : С потерями
Бит/(Пиксели*Кадры)                      : 0.185
Размер потока                            : 376 Мбайт (79%)
Библиотека кодирования                   : XviD 64

Аудио #1
Идентификатор                            : 1
Формат                                   : MPEG Audio
Версия формата                           : Version 1
Профиль формата                          : Layer 3
Режим                                    : Joint stereo
Расширение режима                        : MS Stereo
Идентификатор кодека                     : 55
Идентификатор кодека/Подсказка           : MP3
Продолжительность                        : 42 м.
Вид битрейта                             : Постоянный
Битрейт                                  : 160 Кбит/сек
Каналы                                   : 2 канала
Частота                                  : 48,0 КГц
Метод сжатия                             : С потерями
Задержка видео                           : 180 мс.
Размер потока                            : 48,1 Мбайт (10%)
Выравнивание                             : Разделение по промежуткам
Продолжительность промежутка             : 42  мс. (1,00 видеокадр)
Время предзагрузки промежутка            : 500  мс.

Аудио #2
Идентификатор                            : 2
Формат                                   : MPEG Audio
Версия формата                           : Version 1
Профиль формата                          : Layer 3
Режим                                    : Joint stereo
Расширение режима                        : MS Stereo
Идентификатор кодека                     : 55
Идентификатор кодека/Подсказка           : MP3
Продолжительность                        : 42 м.
Вид битрейта                             : Постоянный
Битрейт                                  : 160 Кбит/сек
Каналы                                   : 2 канала
Частота                                  : 48,0 КГц
Метод сжатия                             : С потерями
Задержка видео                           : 180 мс.
Размер потока                            : 48,1 Мбайт (10%)
Выравнивание                             : Разделение по промежуткам
Продолжительность промежутка             : 42  мс. (1,00 видеокадр)
Время предзагрузки промежутка            : 500  мс.

>>Все раздачи<<

Скриншоты:




Время раздачи: 24/7
 Торрент: Платиновая раздача  Зарегистрирован
 
Скачать


 Зарегистрирован:   19 Май 2012 21:06:23
 Размер:   492 MB  (
 Рейтинг:   4.6 (Голосов: 27)
 Поблагодарили:   66
 Проверка:   Оформление проверено модератором 19 Май 2012 21:10:37
Как cкачать  ·  Как раздать  ·  Правильно оформить  ·  Поднять ратио!  
sentinel2727
Стаж: 15 лет 9 мес.
Сообщений: 4363
Ratio: 94.08
Поблагодарили: 32095
100%
Откуда: Odessa
ukraine.gif
Redisko111
временная- до обновления основного релиза http://www.nnmclub.to/forum/viewtopic.php?t=392020
user4
Стаж: 13 лет
Сообщений: 50
Ratio: 4.286
100%
russia.gif
Топик был перенесен из форума Менталист / The Mentalist ; Теория Лжи / Lie To Me в форум Архив Сериалов

Причина переноса: http://www.nnmclub.to/forum/viewtopic.php?t=392020
Dimon1808
Показать сообщения:   
Начать новую тему   Ответить на тему    Торрент-трекер NNM-Club -> Архив торрентов -> Архив Сериалов и Архив Старого многосерийного кино до 90-х Часовой пояс: GMT + 3
Страница 1 из 1