Классический форум-трекер
canvas not supported
Нас вместе: 4 232 024

Олимпийская деревня (2010) SATRip


 
 
RSS
Начать новую тему   Ответить на тему    Торрент-трекер NNM-Club -> Отечественное кино -> Отечественные Фильмы (SD)
Автор Сообщение
art-61 ®
Стаж: 12 лет 10 мес.
Сообщений: 1094
Ratio: 119.617
Поблагодарили: 143398
100%
Откуда: Санкт-Петербург
russia.gif
Олимпийская деревня (2010) SATRip
Страна: Россия,
Выпущено: "Амигос-фильм"
Жанр: Комедия

Описание:
Москва. Август 1980-го года. Власти СССР готовят Москву к приезду олимпийских гостей. В связи с компанией по "очищению" Москвы, неблагонадежных граждан, инакомыслящих и диссидентов на время олимпиады отправляют за 101-й километр в дачные поселки и санатории. В их числе - инфантильный виолончелист Арсений Чайка, который победив на конкурсе им. Чайковского, привлек к себе излишнее внимание иностранной музыкальной прессы и теперь находится под пристальным вниманием соответствующих органов. С виолончелью за спиной и с единственным другом - кроликом на руках, Арсений отправляется в "ссылку"...

Режиссер: Александр Сухарев
Актеры: Сергей Колешня, Анастасия Городенцева, Михаил Ефремов, Валерий Гаркалин, Денис Никифоров, Виктор Бычков, Алексей Булдаков, Геннадий Хазанов, Инга Оболдина

Продолжительность: 01:19:16



Качество видео: SATRip
Формат видео: AVI

Видео: 704x416, 25 fps, XviD, 2270 kbps, 0.309
Аудио: 48 kHz, MPEG Layer 3, 2 ch, 192.00 kbps
Общее
Полное имя : D:\Torrent_NNM_3\Olimpijskaja.derevnja.2010.XviD.SATRip.by.simka_RG_Сериалы.avi
Формат : AVI
Формат/Информация : Audio Video Interleave
Размер файла : 1,36 Гбайт
Продолжительность : 1 ч. 19 м.
Общий поток : 2464 Кбит/сек
Программа кодирования : VirtualDubMod 1.5.10.3 | www.virtualdub-fr.org || (build 2550/release)
Библиотека кодирования : VirtualDubMod build 2550/release

Видео
Идентификатор : 0
Формат : MPEG-4 Visual
Профиль формата : Advanced Simple@L5
Настройки формата : BVOP1
Параметр BVOP формата : 1
Параметр QPel формата : Нет
Параметр GMC формата : Без точки перехода
Параметр матрицы формата : Default (H.263)
Идентификатор кодека : XVID
Идентификатор кодека/Подсказка : XviD
Продолжительность : 1 ч. 19 м.
Битрейт : 2262 Кбит/сек
Ширина : 704 пикселя
Высота : 416 пикселей
Соотношение сторон : 5:3
Частота кадров : 25,000 кадров/сек
Цветовое пространство : YUV
Субдискретизация насыщенности : 4:2:0
Битовая глубина : 8 бит
Тип развёртки : Прогрессивная
Метод сжатия : С потерями
Бит/(Пиксели*Кадры) : 0.309
Размер потока : 1,25 Гбайт (92%)
Библиотека кодирования : XviD 1.2.1 (UTC 2008-12-04)

Аудио
Идентификатор : 1
Формат : MPEG Audio
Версия формата : Version 1
Профиль формата : Layer 3
Настройки формата : Joint stereo / MS Stereo
Идентификатор кодека : 55
Идентификатор кодека/Подсказка : MP3
Продолжительность : 1 ч. 19 м.
Вид битрейта : Постоянный
Битрейт : 192 Кбит/сек
Каналы : 2 канала
Частота : 48,0 КГц
Частота кадров : 41,667 кадра/сек (1152 SPF)
Метод сжатия : С потерями
Размер потока : 109 Мбайт (8%)
Выравнивание : Соединение по промежуткам
Продолжительность промежутка : 40 мс. (1,00 видеокадр)
Время предзагрузки промежутка : 504 мс.
Библиотека кодирования : LAME3.98r
Настройки программы : -m j -V 4 -q 2 -lowpass 18.6 -b 192
Скриншоты:




Время раздачи: 24/7 по возможности
[NNMClub.to]_Olimpijskaja.derevnja.2010.SATRip.torrent
 Торрент: Платиновая раздача  Зарегистрирован
 
Скачать


Примагнититься
 Зарегистрирован:   19 Сен 2020 20:37:59
 Размер:   1.36 GB  (
 Рейтинг:   4.4 (Голосов: 61)
 Поблагодарили:   285
 Проверка:   Оформление проверено модератором 19 Сен 2020 20:39:12
Как cкачать  ·  Как раздать  ·  Правильно оформить  ·  Поднять ратио!  

_________________
В этом безумном мире возможно всё!
Endriu007
Стаж: 14 лет 7 мес.
Сообщений: 240
Ratio: 2.325
100%
lithuania.gif
Спасибо :супер!: :супер!: :супер!:
Бумабараш
Стаж: 5 лет 1 мес.
Сообщений: 115
Ratio: 0.361
5.7%
XXII Летние Олимпийские игры проходили в Москве с 19 июля по 3 августа 1980 года.В каком августе власти готовили очищение Москвы?После олимпиады?
Показать сообщения:   
Начать новую тему   Ответить на тему    Торрент-трекер NNM-Club -> Отечественное кино -> Отечественные Фильмы (SD) Часовой пояс: GMT + 3
Страница 1 из 1